<?xml version="1.0" standalone="no"?>
<!DOCTYPE svg PUBLIC "-//W3C//DTD SVG 1.1//EN" "http://www.w3.org/Graphics/SVG/1.1/DTD/svg11.dtd" >
<!--
2017-5-2: Created.
-->
<svg xmlns="http://www.w3.org/2000/svg">
<metadata>
Created by FontForge 20120731 at Tue May  2 17:56:05 2017
 By icons8

</metadata>
<defs>
<font id="Arlo-Website---iOS" horiz-adv-x="512" >
  <font-face 
    font-family="Arlo-Website---iOS"
    font-weight="500"
    font-stretch="normal"
    units-per-em="512"
    panose-1="2 0 6 3 0 0 0 0 0 0"
    ascent="448"
    descent="-64"
    bbox="-0.00195312 -64.0723 512 448.012"
    underline-thickness="25.6"
    underline-position="-51.2"
    unicode-range="U+0020-F130"
  />
    <missing-glyph />
    <glyph glyph-name="space" unicode=" " horiz-adv-x="200" 
 />
    <glyph glyph-name="toggle-off-filled" unicode="&#xf117;" 
d="M143.36 335.36c79.0527 0 143.359 -64.3076 143.359 -143.36s-64.3066 -143.36 -143.359 -143.36s-143.36 64.3076 -143.36 143.36s64.3076 143.36 143.36 143.36zM222.4 335.36h146.239c79.0527 0 143.36 -64.3076 143.36 -143.36s-64.3076 -143.36 -143.36 -143.36
h-146.239c50.4414 27.9561 84.7998 81.7158 84.7998 143.36s-34.3584 115.404 -84.7998 143.36z" />
    <glyph glyph-name="help" unicode="&#xf129;" 
d="M256 448c141.264 0 256 -114.736 256 -256s-114.736 -256 -256 -256s-256 114.736 -256 256s114.736 256 256 256zM256 427.52c-130.195 0 -235.52 -105.324 -235.52 -235.52s105.324 -235.52 235.52 -235.52s235.52 105.324 235.52 235.52
s-105.324 235.52 -235.52 235.52zM258.88 320c39.6494 0 66.5605 -26.0381 66.5605 -62.4004c0 -17.6328 -6.3877 -30.7354 -18.8809 -48l-24.3193 -33.5996c-7.34277 -9.91211 -9.60059 -15.0371 -9.60059 -27.5195v-11.8408
c0 -2.20117 -1.6377 -3.51953 -3.83984 -3.51953h-24c-2.20117 -0.0410156 -3.83984 1.31836 -3.83984 3.51953v15.04c0 14.7051 3.16895 22.3008 10.8799 32.96l24.6406 33.9199c12.8408 17.623 17.2793 25.9072 17.2793 38.4004
c0 20.9307 -14.5791 34.2402 -35.5195 34.2402c-20.5625 0 -33.6768 -12.4746 -38.0801 -34.8799c-0.369141 -2.20215 -1.94824 -3.24902 -4.16016 -2.87988l-23.04 4.15918c-2.21191 0.369141 -3.55859 1.62891 -3.2002 3.84082
c5.51953 35.2559 30.9248 58.5596 69.1201 58.5596zM242.88 104.96h27.8398c2.20215 0 3.83984 -1.32812 3.83984 -3.51953v-31.6807c0 -2.21191 -1.64844 -3.51953 -3.83984 -3.51953h-27.8398c-2.22168 0 -3.83984 1.31836 -3.83984 3.51953v31.6807
c0 2.20117 1.62793 3.51953 3.83984 3.51953z" />
    <glyph glyph-name="search" unicode="&#xf119;" 
d="M215.04 417.28c96.0205 0 174.08 -78.0596 174.08 -174.08c0 -43.2266 -15.7637 -82.8164 -41.9199 -113.28l133.12 -133.439l-28.8008 -28.8008l-134.72 134.4c-28.6426 -20.7119 -63.7744 -32.96 -101.76 -32.96c-96.0205 0 -174.08 78.0596 -174.08 174.08
s78.0596 174.08 174.08 174.08zM215.04 396.8c-84.9521 0 -153.6 -68.6475 -153.6 -153.6s68.6475 -153.601 153.6 -153.601s153.6 68.6484 153.6 153.601s-68.6475 153.6 -153.6 153.6z" />
    <glyph glyph-name="circled-play" unicode="&#xf12e;" 
d="M256 427.52c129.953 0 235.52 -105.566 235.52 -235.52s-105.566 -235.52 -235.52 -235.52s-235.52 105.566 -235.52 235.52s105.566 235.52 235.52 235.52zM256 407.04c-118.885 0 -215.04 -96.1553 -215.04 -215.04s96.1553 -215.04 215.04 -215.04
s215.04 96.1553 215.04 215.04s-96.1553 215.04 -215.04 215.04zM184.32 312.32l15.3594 -8.95996l174.08 -102.4l15.04 -8.95996l-15.04 -8.95996l-174.08 -102.4l-15.3594 -8.95996v17.9199v204.801v17.9199zM204.8 276.48v-168.961l143.36 84.4805z" />
    <glyph glyph-name="private" unicode="&#xf105;" 
d="M256 448c141.264 0 256 -114.736 256 -256s-114.736 -256 -256 -256s-256 114.736 -256 256s114.736 256 256 256zM256 427.52c-130.195 0 -235.52 -105.324 -235.52 -235.52s105.324 -235.52 235.52 -235.52s235.52 105.324 235.52 235.52
s-105.324 235.52 -235.52 235.52zM261.12 396.8c18.6279 0 33.9766 -14.6963 35.5195 -32.96l0.00195312 -0.160156l-0.00195312 -0.160156c0.0175781 -0.226562 0.307617 -0.411133 0.320312 -0.639648c0.00292969 -0.0878906 0.00488281 -0.231445 0.00488281 -0.320312
c0 -0.0878906 -0.00195312 -0.231445 -0.00488281 -0.319336c4.72949 2.31934 9.78613 3.83984 15.3604 3.83984c18.6279 0 33.9766 -14.6973 35.5195 -32.96l0.000976562 -0.160156l-0.000976562 -0.160156c0.0175781 -0.227539 0.307617 -0.411133 0.320312 -0.639648
c0.00585938 -0.132812 0.0107422 -0.347656 0.0107422 -0.480469c0 -0.131836 -0.00488281 -0.347656 -0.0107422 -0.479492c0.00878906 -0.330078 0 -0.62793 0 -0.959961c0.0175781 -0.220703 0.03125 -0.579102 0.03125 -0.799805
c0 -0.22168 -0.0136719 -0.580078 -0.03125 -0.800781v-130.88l1.59961 2.56055c0.0869141 0.0898438 0.229492 0.233398 0.320312 0.319336c11.1191 17.1582 33.5244 23.3174 50.5596 12.8008c16.582 -10.501 20.5615 -32.8838 10.2402 -49.9209h0.320312
s-0.628906 -0.935547 -0.640625 -0.959961c-0.90918 -1.7832 -36.1631 -70.8975 -58.2393 -100.8c-10.8682 -14.7275 -22.7402 -28.8164 -40.6406 -38.7197c-17.8994 -9.9043 -41.043 -15.3604 -73.9199 -15.3604c-51.3838 0 -82.0918 23.5557 -97.5996 49.9199
c-15.5088 26.3652 -17.2803 54.5479 -17.2803 66.8809v174.079c-0.00292969 0.0888672 -0.00488281 0.232422 -0.00488281 0.320312c0 0.0888672 0.00195312 0.231445 0.00488281 0.320312l-0.000976562 0.160156l0.000976562 0.15918v0.320312
c0.0527344 0.449219 0.196289 1.16602 0.320312 1.60059c1.05957 18.7178 16.5596 33.9199 35.5195 33.9199c5.57422 0 10.6309 -1.52051 15.3604 -3.84082v8c-0.00292969 0.0888672 -0.00488281 0.232422 -0.00488281 0.320312
c0 0.0888672 0.00195312 0.231445 0.00488281 0.320312l-0.000976562 0.160156l0.000976562 0.160156l-0.000976562 0.15918l0.000976562 0.160156l-0.000976562 0.160156l0.000976562 0.160156c-0.00292969 0.0878906 -0.00488281 0.231445 -0.00488281 0.320312
c0 0.0878906 0.00195312 0.231445 0.00488281 0.319336l-0.000976562 0.160156l0.000976562 0.160156c0.0859375 0.0898438 0.229492 0.233398 0.320312 0.320312c0.00585938 0.108398 -0.0078125 0.210938 0 0.319336
c-0.00292969 0.0888672 -0.00585938 0.231445 -0.00585938 0.320312c0 0.0878906 0.00292969 0.231445 0.00585938 0.320312c1.54297 18.2627 16.8916 32.96 35.5195 32.96c6.34082 0 12.085 -1.85059 17.2803 -4.80078c4.63184 14.4463 18.0371 25.2803 33.9199 25.2803z
M261.12 376.32c-8.32715 0 -14.8867 -6.21777 -15.3604 -14.4004c0.00683594 -0.132812 0.0117188 -0.347656 0.0117188 -0.479492c0 -0.132812 -0.00488281 -0.347656 -0.0117188 -0.480469c0.0175781 -0.220703 0.03125 -0.579102 0.03125 -0.799805
c0 -0.22168 -0.0136719 -0.580078 -0.03125 -0.799805v-18.8799c0.0175781 -0.220703 0.03125 -0.579102 0.03125 -0.800781c0 -0.220703 -0.0136719 -0.579102 -0.03125 -0.799805v-2.55957c0.00683594 -0.132812 0.0117188 -0.347656 0.0117188 -0.480469
s-0.00488281 -0.347656 -0.0117188 -0.479492v-112.641c-0.078125 -5.57324 -4.66602 -10.0957 -10.2402 -10.0957c-5.57324 0 -10.1611 4.52246 -10.2393 10.0957v112.641c-0.0175781 0.219727 -0.03125 0.578125 -0.03125 0.799805
c0 0.220703 0.0136719 0.579102 0.03125 0.799805v2.55957c-0.00683594 0.132812 -0.0117188 0.347656 -0.0117188 0.480469s0.00488281 0.347656 0.0117188 0.480469c0 8.64844 -6.71191 15.3594 -15.3604 15.3594c-8.43457 0 -15.0391 -6.38184 -15.3604 -14.7197
c0.00683594 -0.132812 0.0117188 -0.347656 0.0117188 -0.480469c0 -0.131836 -0.00488281 -0.347656 -0.0117188 -0.479492c0.0117188 -0.176758 0.0205078 -0.462891 0.0205078 -0.640625c0 -0.176758 -0.00878906 -0.462891 -0.0205078 -0.639648v-39.3604
c0.0175781 -0.219727 0.03125 -0.578125 0.03125 -0.799805c0 -0.220703 -0.0136719 -0.579102 -0.03125 -0.799805v-85.4395c-0.078125 -5.57324 -4.66602 -10.0967 -10.2393 -10.0967c-5.57422 0 -10.1611 4.52344 -10.2402 10.0967v86.0791
c-0.00585938 0.132812 -0.0117188 0.347656 -0.0117188 0.480469s0.00585938 0.347656 0.0117188 0.479492c0 8.64941 -6.71191 15.3604 -15.3604 15.3604c-8.43457 0 -15.0381 -6.38184 -15.3594 -14.7197c0.00585938 -0.132812 0.0107422 -0.347656 0.0107422 -0.480469
c0 -0.131836 -0.00488281 -0.347656 -0.0107422 -0.479492c0.0107422 -0.176758 0.0195312 -0.463867 0.0195312 -0.640625s-0.00878906 -0.462891 -0.0195312 -0.639648v-173.439c0 -9.98047 1.85547 -34.9951 14.3994 -56.3203s34.5547 -40 80 -40
c30.6006 0 49.8125 4.9502 64 12.7998s23.9424 19.0049 34.2402 32.96c19.3555 26.2158 56.96 98.8799 56.96 98.8799c0.0751953 0.269531 0.21875 0.699219 0.320312 0.959961c5.45312 8.48535 3.34668 18.0518 -3.52051 22.4004
c-6.66992 4.11816 -16.8203 1.76074 -22.3994 -6.40039c-0.0947266 -0.136719 -0.229492 -0.178711 -0.320312 -0.319336l-20.4805 -33.6006c-1.66602 -2.61719 -5.53613 -4.74121 -8.63867 -4.74121c-5.62012 0 -10.208 4.56152 -10.2412 10.1816v168
c-0.00585938 0.131836 -0.0107422 0.34668 -0.0107422 0.479492s0.00488281 0.347656 0.0107422 0.480469c0 8.64844 -6.71094 15.3594 -15.3594 15.3594c-8.64941 0 -15.3604 -6.71094 -15.3604 -15.3594c0.0175781 -0.220703 0.03125 -0.579102 0.03125 -0.799805
c0 -0.22168 -0.0136719 -0.580078 -0.03125 -0.800781v-2.55957c0.00585938 -0.132812 0.0117188 -0.347656 0.0117188 -0.480469c0 -0.131836 -0.00585938 -0.347656 -0.0117188 -0.479492v-112.64c-0.0791016 -5.57324 -4.66602 -10.0967 -10.2402 -10.0967
c-5.57324 0 -10.1611 4.52344 -10.2393 10.0967v112.64c-0.0175781 0.220703 -0.0322266 0.579102 -0.0322266 0.799805c0 0.22168 0.0146484 0.580078 0.0322266 0.799805v2.56055c-0.00683594 0.131836 -0.0117188 0.34668 -0.0117188 0.479492
s0.00488281 0.347656 0.0117188 0.480469v29.7598c-0.00683594 0.132812 -0.0117188 0.347656 -0.0117188 0.480469c0 0.131836 0.00488281 0.34668 0.0117188 0.479492c0 0.213867 0.0078125 0.428711 0 0.639648c-0.321289 8.33887 -6.92578 14.7207 -15.3604 14.7207z
" />
    <glyph glyph-name="coffee-maker" unicode="&#xf11e;" 
d="M137.92 448h256c48.0381 0 87.3604 -39.0781 87.3604 -87.04c0 -24.2959 -10.0381 -46.2686 -26.2402 -62.0801l46.7197 -279.36c0.0175781 -0.219727 0.03125 -0.578125 0.03125 -0.799805c0 -0.220703 -0.0136719 -0.579102 -0.03125 -0.799805v-46.0801
c0 -19.6729 -16.167 -35.8398 -35.8398 -35.8398h-389.12c-14.0186 0 -25.5996 11.5811 -25.5996 25.5996v40.96c0 14.0195 11.5811 25.6006 25.5996 25.6006h37.7598c-3.36426 4.76953 -6.68359 10.4355 -9.91992 17.2803
c-3.20605 6.78223 -6.17383 14.5674 -8.95996 23.6797h-29.1201c-25.3271 0 -46.0791 20.752 -46.0791 46.0801s20.752 46.0801 46.0791 46.0801c5.93848 0 11.1035 -1.15723 15.6807 -2.87988c-0.283203 7.4082 -0.320312 15.2422 -0.320312 23.3594v0.0439453
c0 5.14551 4.15723 9.71387 9.28027 10.1963c0.131836 0.00585938 0.347656 0.0117188 0.479492 0.0117188c0.132812 0 0.347656 -0.00585938 0.480469 -0.0117188h194.56c5.65234 -0.000976562 10.2393 -4.58789 10.2402 -10.2402
c0 -67.6055 -10.3223 -110.098 -22.7197 -136.319c-3.23633 -6.84473 -6.55566 -12.5107 -9.91992 -17.2803h63.3594v245.76h-112.64v-40.96v-10.2402h-10.2402h-30.7197h-10.2402v10.2402v40.96h-25.9199c-48.0469 0 -87.3604 39.0801 -87.3604 87.04
s39.3135 87.04 87.3604 87.04zM137.92 427.52c-37.0068 0 -66.8799 -29.6914 -66.8799 -66.5596s29.873 -66.5596 66.8799 -66.5596h33.9199c0.568359 0.117188 1.5 0.212891 2.08008 0.212891s1.51172 -0.0957031 2.08008 -0.212891h217.92
c36.9951 0 66.8799 29.6934 66.8799 66.5596s-29.8848 66.5596 -66.8799 66.5596h-256zM436.48 285.12c-12.6162 -7.06055 -27.1338 -11.2002 -42.5605 -11.2002h-45.7598v-256c-0.000976562 -5.65137 -4.58789 -10.2393 -10.2402 -10.2402h-102.4h-92.1592h-66.5605
c-2.93848 0 -5.12012 -2.18164 -5.12012 -5.12012v-40.96c0 -2.9375 2.18164 -5.11914 5.12012 -5.11914h389.12c8.61035 0 15.3604 6.75 15.3604 15.3594v44.4805zM184.32 273.92v-30.7197h10.2393v30.7197h-10.2393zM103.36 171.52
c1.17578 -58.2344 9.91992 -96.1377 19.8398 -117.119c5.2998 -11.21 10.585 -18.2021 14.7197 -22.0801c3.10156 -2.90918 5.86133 -3.89941 6.08008 -4.16016h90.8799c0.21875 0.260742 2.97852 1.25098 6.08008 4.16016c4.13477 3.87793 9.4209 10.8701 14.7197 22.0801
c9.91992 20.9814 18.6641 58.8848 19.8398 117.119h-172.159zM66.5596 140.8c-14.2598 0 -25.5996 -11.3398 -25.5996 -25.5996s11.3398 -25.6006 25.5996 -25.6006h24c-2.74805 12.7256 -4.91992 27.1699 -6.39941 43.8408
c-3.50781 3.32129 -9.33105 7.35938 -17.6006 7.35938zM409.6 89.5996c11.3115 0 20.4805 -9.16895 20.4805 -20.4795s-9.16895 -20.4805 -20.4805 -20.4805c-11.3105 0 -20.4795 9.16992 -20.4795 20.4805s9.16895 20.4795 20.4795 20.4795z" />
    <glyph glyph-name="marker" unicode="&#xf107;" 
d="M256 437.76c90.5029 0 163.84 -73.3369 163.84 -163.84c0 -73.3965 -39.5469 -153.638 -78.3994 -216.32c-38.8525 -62.6816 -77.7607 -107.84 -77.7607 -107.84c-1.6875 -1.91309 -5.12793 -3.46582 -7.67969 -3.46582s-5.99219 1.55273 -7.67969 3.46582
c0 0 -38.8916 44.2402 -77.7607 106.561c-38.8682 62.3193 -78.3994 142.748 -78.3994 217.6c0 90.5029 73.3369 163.84 163.84 163.84zM256 417.28c-79.4814 0 -143.36 -63.8789 -143.36 -143.36c0 -67.4844 37.2695 -145.903 75.2002 -206.72
c31.7197 -50.8564 58.6338 -83.1426 68.1602 -94.4004c9.44336 11.334 36.3457 44.3535 68.1602 95.6807c37.9473 61.2217 75.2002 139.572 75.2002 205.439c0 79.4814 -63.8789 143.36 -143.36 143.36zM256 335.36c39.4668 0 71.6797 -32.2139 71.6797 -71.6807
c0 -39.4658 -32.2129 -71.6797 -71.6797 -71.6797s-71.6797 32.2139 -71.6797 71.6797c0 39.4668 32.2129 71.6807 71.6797 71.6807zM256 314.88c-28.3984 0 -51.2002 -22.8018 -51.2002 -51.2002s22.8018 -51.1992 51.2002 -51.1992s51.2002 22.8008 51.2002 51.1992
s-22.8018 51.2002 -51.2002 51.2002z" />
    <glyph glyph-name="embassy" unicode="&#xf10d;" 
d="M235.52 333.44c55.2969 0 36.7363 -18.5605 73.6006 -18.5605h18.5596v-55.3604h-18.5596c-36.8643 0 -18.3037 18.5605 -73.6006 18.5605v55.3604zM90.2402 232.96c0.131836 0.00585938 0.347656 0.0117188 0.479492 0.0117188
c0.132812 0 0.347656 -0.00585938 0.480469 -0.0117188c0.131836 0.00585938 0.347656 0.0117188 0.479492 0.0117188c0.132812 0 0.347656 -0.00585938 0.480469 -0.0117188h327.68c5.65234 -0.000976562 10.2393 -4.58789 10.2402 -10.2402v-51.2002h71.6797
c5.65234 0 10.2393 -4.58789 10.2402 -10.2393v-215.04c-0.000976562 -5.65234 -4.58789 -10.2393 -10.2402 -10.2402h-491.52c-5.65234 0.000976562 -10.2393 4.58789 -10.2402 10.2402v215.04v0.0439453c0 5.14551 4.15723 9.71289 9.28027 10.1953
c0.131836 0.00683594 0.347656 0.0117188 0.479492 0.0117188c0.132812 0 0.347656 -0.00488281 0.480469 -0.0117188h71.6797v51.2002c-0.000976562 0.0498047 -0.00195312 0.130859 -0.00195312 0.180664c0 4.67676 3.72852 9.18359 8.32227 10.0596zM102.4 212.48
v-40.9609h297.92h9.2793v40.9609h-307.199zM20.4805 151.04v-194.56h471.039v194.56h-91.1992h-379.84zM61.4404 120.32h30.7197v-51.2002h-30.7197v51.2002zM133.12 120.32h30.7197v-51.2002h-30.7197v51.2002zM204.8 120.32h30.7197v-51.2002h-30.7197v51.2002z
M276.48 120.32h30.7197v-51.2002h-30.7197v51.2002zM348.16 120.32h30.7197v-51.2002h-30.7197v51.2002zM419.84 120.32h30.7197v-51.2002h-30.7197v51.2002zM61.4404 38.4004h30.7197v-51.2002h-30.7197v51.2002zM133.12 38.4004h30.7197v-51.2002h-30.7197v51.2002z
M204.8 38.4004h30.7197v-51.2002h-30.7197v51.2002zM276.48 38.4004h30.7197v-51.2002h-30.7197v51.2002zM348.16 38.4004h30.7197v-51.2002h-30.7197v51.2002zM419.84 38.4004h30.7197v-51.2002h-30.7197v51.2002z" />
    <glyph glyph-name="design" unicode="&#xf127;" 
d="M101.76 442.56l7.36035 -7.04004l160 -160l128.96 128.961l8.32031 8.31934c19.4658 19.4561 50.9131 19.4766 70.3994 0c19.4463 -19.4561 19.4668 -50.9336 0 -70.3994c0 0 -8.37109 -8.36133 -8.31934 -8.32031l-353.921 -353.92
c-1.02246 -1.12793 -3.0293 -2.41797 -4.47949 -2.87988l-76.7998 -20.4805c-0.697266 -0.179688 -1.84668 -0.326172 -2.56543 -0.326172c-5.65332 0 -10.2412 4.58789 -10.2412 10.2412c0 0.71875 0.146484 1.86816 0.326172 2.56543l20.4805 76.7998
c0.461914 1.4502 1.75195 3.45703 2.87988 4.47949l128.32 128.32l-160 160l-7.04004 7.36035l7.04004 7.35938l81.9199 81.9199zM101.76 413.44l-67.2002 -67.2002l152.641 -152.641l54.0801 54.0801l-13.1201 13.1201l13.1201 13.1201l-16 16l-23.3604 -23.3604
l-14.7197 14.7207l23.3594 23.3594l-16 16l-13.1191 -13.1201l-14.7207 14.7207l13.1201 13.1201l-16 16l-23.3594 -23.3604l-14.7207 14.7197l23.3604 23.3604l-16 16l-13.1201 -13.1201l-14.7197 14.7197l13.1201 13.1201zM412.48 390.08l-352 -352l41.5996 -41.5996
l352 352zM348.16 196.16l151.359 -151.04l7.04004 -7.36035l-7.04004 -7.35938l-81.9199 -81.9199l-7.35938 -7.04004l-7.36035 7.04004l-151.04 151.359l14.4004 14.4004l144 -143.681l67.2002 67.2002l-6.40039 6.40039l-13.1201 -13.1201l-14.7197 14.7197
l13.1201 13.1201l-16 16l-23.3604 -23.3604l-14.7197 14.7207l23.3594 23.3594l-16 16l-13.1191 -13.1191l-14.7207 14.7197l13.1201 13.1201l-16 16l-23.3604 -23.3604l-14.7197 14.7197l23.3604 23.3604l-16 16l-13.1201 -13.1201l-14.7197 14.7197l20.4795 20.4805z" />
    <glyph glyph-name="user-groups" unicode="&#xf113;" 
d="M174.08 427.52c33.8105 0 61.4395 -27.6289 61.4395 -61.4395c0 -20.3135 -9.98535 -38.4004 -25.2793 -49.5996c23.5635 -11.5791 40.7031 -33.8662 44.7998 -60.8008c4.08984 26.8955 21.2842 49.2129 44.7998 60.8008
c-15.2949 11.1992 -25.2803 29.2861 -25.2803 49.5996c0 33.8105 27.6289 61.4395 61.4404 61.4395s61.4404 -27.6289 61.4404 -61.4395c0 -20.3135 -9.98535 -38.4004 -25.2803 -49.5996c8.3457 -4.22559 15.9443 -9.89551 22.3994 -16.6406
c7.89746 3.00879 16.3516 4.7998 25.2803 4.7998c39.4668 0 71.6797 -32.2129 71.6797 -71.6797c0 -25.0879 -13.0176 -47.3447 -32.6396 -60.1602c31.2881 -14.7842 53.1201 -46.4951 53.1201 -83.2002v-46.0801v-0.0791016c0 -2.85449 -1.86328 -6.5459 -4.16016 -8.24023
c0 0 -7.24023 -5.11621 -21.1201 -9.28027s-35.3066 -8 -66.8799 -8s-53 3.83594 -66.8799 8c-1.78809 0.537109 -3.2334 1.04492 -4.7998 1.59961v-45.4395v-0.0800781c0 -2.85352 -1.86328 -6.54492 -4.16016 -8.24023c0 0 -7.24023 -5.11621 -21.1201 -9.2793
c-13.8799 -4.16406 -35.3066 -8 -66.8799 -8s-53 3.83594 -66.8799 8c-13.8799 4.16309 -21.1201 9.2793 -21.1201 9.2793c-2.29688 1.69531 -4.16016 5.38672 -4.16016 8.24023v0.0800781v45.4395c-1.56641 -0.554688 -3.01172 -1.0625 -4.7998 -1.59961
c-13.8799 -4.16406 -35.3066 -8 -66.8799 -8s-53 3.83594 -66.8799 8s-21.1201 9.28027 -21.1201 9.28027c-2.29688 1.69434 -4.16016 5.38574 -4.16016 8.24023v0.0791016v46.0801c0 36.7051 21.832 68.416 53.1201 83.2002
c-19.6221 12.8154 -32.6396 35.0723 -32.6396 60.1602c0 39.4668 32.2129 71.6797 71.6797 71.6797c8.33789 0 16.2246 -1.51953 23.6797 -4.15918c6.38379 6.55078 13.8682 11.876 22.0801 16c-15.2949 11.1992 -25.2803 29.2861 -25.2803 49.5996
c0 33.8105 27.6289 61.4395 61.4404 61.4395zM174.08 407.04c-22.7432 0 -40.96 -18.2168 -40.96 -40.96s18.2168 -40.96 40.96 -40.96s40.96 18.2168 40.96 40.96s-18.2168 40.96 -40.96 40.96zM336 407.04c-22.7432 0 -40.96 -18.2168 -40.96 -40.96
s18.2168 -40.96 40.96 -40.96s40.96 18.2168 40.96 40.96s-18.2168 40.96 -40.96 40.96zM174.08 304.64c-15.2139 0 -28.418 -5.30859 -39.04 -14.3994c17.3857 -13.1035 28.7998 -33.9277 28.7998 -57.2803c0 -25.0879 -13.0176 -47.3447 -32.6396 -60.1602
c31.2871 -14.7842 53.1201 -46.4951 53.1201 -83.2002v-4.15918c8.79688 10.9326 19.8086 19.8564 32.6396 25.9199c-19.6221 12.8145 -32.6396 35.0723 -32.6396 60.1592c0 32.2891 21.7451 59.5693 51.1992 68.4805v3.2002c0 34.5098 -26.9297 61.4395 -61.4395 61.4395z
M336 304.64c-34.5098 0 -61.4404 -26.9297 -61.4404 -61.4395v-2.56055c30.4648 -8.25781 53.1201 -36.1113 53.1201 -69.1201c0 -25.0869 -13.0176 -47.3447 -32.6396 -60.1592c12.8311 -6.06348 23.8428 -14.9873 32.6396 -25.9199v4.15918
c0 36.7051 21.833 68.416 53.1201 83.2002c-19.6221 12.8154 -32.6396 35.0723 -32.6396 60.1602c0 22.9375 10.9775 43.5029 27.8398 56.6396c-10.7559 9.54785 -24.3779 15.04 -40 15.04zM92.1602 284.16c-28.3984 0 -51.2002 -22.8018 -51.2002 -51.2002
s22.8018 -51.2002 51.2002 -51.2002s51.2002 22.8018 51.2002 51.2002c0 20.4365 -11.915 37.8525 -29.1201 46.0801c-6.70312 3.20508 -14.1182 5.12012 -22.0801 5.12012zM419.84 284.16c-7.09961 0 -13.709 -1.5791 -19.8398 -4.16016
c-0.173828 -0.0947266 -0.459961 -0.238281 -0.639648 -0.320312c-0.348633 -0.152344 -0.616211 -0.480469 -0.959961 -0.639648c-1.02734 -0.793945 -2.89062 -1.65332 -4.16016 -1.91992c-0.0820312 -0.046875 -0.239258 0.0478516 -0.320312 0
c-15.1475 -8.86523 -25.2803 -25.2451 -25.2803 -44.1602c0 -28.3984 22.8018 -51.2002 51.2002 -51.2002s51.2002 22.8018 51.2002 51.2002s-22.8018 51.2002 -51.2002 51.2002zM256 222.72c-28.3984 0 -51.2002 -22.8018 -51.2002 -51.2002
c0 -28.3975 22.8018 -51.1992 51.2002 -51.1992s51.2002 22.8018 51.2002 51.1992c0 28.3984 -22.8018 51.2002 -51.2002 51.2002zM92.1602 161.28c-39.4707 0 -71.6797 -32.21 -71.6797 -71.6807v-39.3594c1.53027 -0.9375 2.11816 -1.94824 10.5596 -4.48047
c11.7197 -3.51562 31.2529 -7.35938 61.1201 -7.35938c29.8662 0 49.3994 3.84375 61.1201 7.35938c8.44043 2.53223 9.02832 3.54297 10.5596 4.48047v39.3594c0 39.4707 -32.209 71.6807 -71.6797 71.6807zM419.84 161.28c-39.4707 0 -71.6797 -32.21 -71.6797 -71.6807
v-39.3594c1.53125 -0.9375 2.11816 -1.94824 10.5596 -4.48047c11.7207 -3.51562 31.2539 -7.35938 61.1201 -7.35938c29.8672 0 49.4004 3.84375 61.1201 7.35938c8.44141 2.53223 9.0293 3.54297 10.5596 4.48047v39.3594c0 39.4707 -32.209 71.6807 -71.6797 71.6807z
M256 99.8398c-39.4707 0 -71.6797 -32.209 -71.6797 -71.6797v-39.3604c1.53027 -0.9375 2.11816 -1.94727 10.5596 -4.47949c11.7207 -3.5166 31.2539 -7.36035 61.1201 -7.36035s49.3994 3.84375 61.1201 7.36035c8.44141 2.53223 9.0293 3.54199 10.5596 4.47949v39.3604
c0 39.4707 -32.209 71.6797 -71.6797 71.6797z" />
    <glyph glyph-name="cancel" unicode="&#xf120;" 
d="M256 417.28c124.298 0 225.28 -100.982 225.28 -225.28s-100.982 -225.28 -225.28 -225.28s-225.28 100.982 -225.28 225.28s100.982 225.28 225.28 225.28zM256 396.8c-113.229 0 -204.8 -91.5703 -204.8 -204.8s91.5703 -204.8 204.8 -204.8s204.8 91.5703 204.8 204.8
s-91.5703 204.8 -204.8 204.8zM168 289.6c0.234375 0.0195312 0.615234 0.0361328 0.850586 0.0361328c2.44824 0 5.79492 -1.4502 7.46973 -3.23535l79.6797 -79.6807l79.6797 79.6807c1.40234 1.37793 4.12598 2.66797 6.08008 2.87988
c0.455078 0.0742188 1.19922 0.135742 1.66113 0.135742c5.65332 0 10.2412 -4.58887 10.2412 -10.2412c0 -2.46094 -1.46191 -5.81836 -3.26172 -7.49512l-79.6807 -79.6797l79.6807 -79.6797c1.68262 -1.68359 3.04785 -4.98047 3.04785 -7.36035
c0 -5.74512 -4.66309 -10.4082 -10.4082 -10.4082c-2.37988 0 -5.67676 1.36523 -7.36035 3.04785l-79.6797 79.6807l-79.6797 -79.6807c-1.68359 -1.68262 -4.98047 -3.04785 -7.36035 -3.04785c-5.74512 0 -10.4082 4.66309 -10.4082 10.4082
c0 2.37988 1.36523 5.67676 3.04785 7.36035l79.6807 79.6797l-79.6807 79.6797c-1.81738 1.67871 -3.29297 5.0498 -3.29297 7.52344c0 4.71973 3.76953 9.23438 8.41309 10.0771c0.347656 0.110352 0.920898 0.253906 1.28027 0.319336z" />
    <glyph glyph-name="home" unicode="&#xf104;" 
d="M254.08 447.36c0.46875 0.0791016 1.23438 0.143555 1.70996 0.143555c2.49707 0 5.88867 -1.49805 7.57031 -3.34375l244.8 -254.72c1.53516 -1.64062 2.78125 -4.79395 2.78125 -7.04004c0 -5.68652 -4.61523 -10.3018 -10.3018 -10.3018
c-2.46582 0 -5.83398 1.46094 -7.51953 3.26172l-32.3203 33.5996v-262.72v-10.2402h-10.2402h-389.119h-10.2402v10.2402v262.72l-32.3203 -33.5996c-1.68555 -1.80078 -5.05371 -3.26172 -7.51953 -3.26172c-5.68652 0 -10.3018 4.61523 -10.3018 10.3018
c0 2.24609 1.24609 5.39941 2.78125 7.04004l244.8 254.72c1.21582 1.36914 3.65332 2.80273 5.44043 3.2002zM256 422.4l-184.32 -192v-273.92h112.641v204.8v10.2393h10.2393h122.881h10.2393v-10.2393v-204.8h112.641v273.92zM358.4 396.8h61.4395v-95.04
l-20.4795 21.4404v53.1201h-20.4805v-31.6807l-20.4795 21.1201v31.04zM204.8 151.04v-194.56h102.4v194.56h-102.4z" />
    <glyph glyph-name="info-filled" unicode="&#xf12c;" 
d="M256 448c141.158 0 256 -114.842 256 -256s-114.842 -256 -256 -256s-256 114.842 -256 256s114.842 256 256 256zM271.422 69.7852v168.571c0 2.20117 -1.46484 3.67578 -3.67676 3.67578h-23.501c-2.19141 0 -3.66602 -1.47461 -3.66602 -3.67578v-168.571
c0 -2.20117 1.46484 -3.67578 3.66602 -3.67578h23.501c2.20215 0 3.67676 1.47461 3.67676 3.67578zM272.158 285.368v26.8086c0 2.20117 -1.47363 3.67578 -3.67578 3.67578h-24.9756c-2.20117 0 -3.65527 -1.47461 -3.65527 -3.67578v-26.8086
c0 -2.20117 1.44336 -3.67578 3.65527 -3.67578h24.9756c2.19141 0 3.67578 1.47461 3.67578 3.67578z" />
    <glyph glyph-name="mouse" unicode="&#xf106;" 
d="M412.667 362c5.83008 0.430664 11.5264 0.0810547 16.666 -0.666992c10.2803 -1.49512 19.3271 -5.32617 26 -12c14.3047 -14.3037 18.0557 -34.7949 10 -54.666s-25.9268 -40.5947 -52.666 -67.334c-13.2871 -13.2861 -22.4199 -28.5 -26 -41.333
c-3.58105 -12.833 -2.25488 -22.4121 4.66602 -29.333c7.85938 -7.85938 15.5469 -9.26074 24 -8s18.3301 6.33887 27.334 15.333l7.33301 7.33301l15.333 -14.666l-8 -8c-11.3701 -11.3584 -24.1973 -19.1758 -38.666 -21.334
c-14.4697 -2.15723 -30.041 2.70801 -42 14.667c-13.1113 13.1113 -15.5938 31.6758 -10.667 49.333c4.92676 17.6582 16.6143 35.2812 32 50.667c25.9326 25.9326 41.4473 46.1484 47.333 60.667c5.88574 14.5176 4.36328 21.6367 -5.33301 31.333
c-5.53418 5.53418 -19.1006 9.51367 -39.333 4c-20.2334 -5.51367 -46.3818 -19.7148 -73.334 -46.667l-7.33301 -8l-15.333 15.334l8 7.33301c29.0479 29.0479 57.1768 45.9023 82 52.667c6.20508 1.69043 12.1689 2.90234 18 3.33301zM209.333 310
c27.3418 0 54.5869 -10.5869 75.334 -31.333l-16 -16.667c-11.8828 5.65332 -26.8535 3.81348 -36.667 -6l-14.667 -14.667c-9.81348 -9.81348 -12.3193 -24.7627 -6.66602 -36.666l-16 -16.667l-75.334 75.333l14.667 15.334c20.7363 20.7461 47.9922 31.333 75.333 31.333
zM300 263.333c41.4932 -41.4932 41.4717 -109.194 0 -150.666l-15.333 -14.667l-75.334 75.333l16.667 16c11.8828 -5.65332 26.8535 -3.14648 36.667 6.66699l14.666 14.667c9.81348 9.83398 11.6318 24.7832 6 36.666zM100 244.667l166 -166l-26 -26
c-41.4717 -41.4932 -109.84 -41.4932 -151.333 0l-14.667 14.666c-41.4932 41.4727 -41.4932 109.841 0 151.334zM254.667 244c2.73535 0 5.93066 -0.597656 8 -2.66699c4.13867 -4.13867 4.13867 -11.1943 0 -15.333l-15.334 -15.333
c-4.13867 -4.13867 -11.1943 -4.13867 -15.333 0s-4.13867 11.1943 0 15.333l15.333 15.333c2.06934 2.06934 4.59766 2.66699 7.33398 2.66699z" />
    <glyph glyph-name="cancel-2" unicode="&#xf121;" 
d="M256 417.28c124.298 0 225.28 -100.982 225.28 -225.28s-100.982 -225.28 -225.28 -225.28s-225.28 100.982 -225.28 225.28s100.982 225.28 225.28 225.28zM256 396.8c-113.229 0 -204.8 -91.5703 -204.8 -204.8s91.5703 -204.8 204.8 -204.8s204.8 91.5703 204.8 204.8
s-91.5703 204.8 -204.8 204.8zM168 289.6c0.234375 0.0195312 0.615234 0.0361328 0.850586 0.0361328c2.44824 0 5.79492 -1.4502 7.46973 -3.23535l79.6797 -79.6807l79.6797 79.6807c1.40234 1.37793 4.12598 2.66797 6.08008 2.87988
c0.455078 0.0742188 1.19922 0.135742 1.66113 0.135742c5.65332 0 10.2412 -4.58887 10.2412 -10.2412c0 -2.46094 -1.46191 -5.81836 -3.26172 -7.49512l-79.6807 -79.6797l79.6807 -79.6797c1.68262 -1.68359 3.04785 -4.98047 3.04785 -7.36035
c0 -5.74512 -4.66309 -10.4082 -10.4082 -10.4082c-2.37988 0 -5.67676 1.36523 -7.36035 3.04785l-79.6797 79.6807l-79.6797 -79.6807c-1.68359 -1.68262 -4.98047 -3.04785 -7.36035 -3.04785c-5.74512 0 -10.4082 4.66309 -10.4082 10.4082
c0 2.37988 1.36523 5.67676 3.04785 7.36035l79.6807 79.6797l-79.6807 79.6797c-1.81738 1.67871 -3.29297 5.0498 -3.29297 7.52344c0 4.71973 3.76953 9.23438 8.41309 10.0771c0.347656 0.110352 0.920898 0.253906 1.28027 0.319336z" />
    <glyph glyph-name="diploma-1" unicode="&#xf109;" 
d="M90.2402 407.04c0.131836 0.00585938 0.347656 0.0107422 0.479492 0.0107422c0.132812 0 0.347656 -0.00488281 0.480469 -0.0107422c0.131836 0.00585938 0.347656 0.0107422 0.479492 0.0107422c0.132812 0 0.347656 -0.00488281 0.480469 -0.0107422h327.68
c5.65234 -0.000976562 10.2393 -4.58789 10.2402 -10.2402v-409.6c-0.000976562 -5.65234 -4.58789 -10.2393 -10.2402 -10.2402h-143.359v20.4805h133.119v389.119h-307.199v-389.119h51.1992v-20.4805h-61.4395c-5.65234 0.000976562 -10.2393 4.58789 -10.2402 10.2402
v409.6c-0.000976562 0.0498047 -0.00195312 0.130859 -0.00195312 0.180664c0 4.67676 3.72852 9.18262 8.32227 10.0596zM153.6 284.16h204.801v-20.4805h-204.801v20.4805zM153.6 222.72h204.801v-20.4795h-204.801v20.4795zM215.04 140.8
c8.04297 0 14.5439 -4.66016 19.2002 -10.5596c7.12598 1.5625 14.8008 1.21484 21.1201 -3.83984c6.2832 -5.02734 7.9209 -12.8086 7.67969 -20.1602c6.64355 -3.62695 12.1367 -9.1377 13.4404 -16.96c1.29297 -7.76172 -2.18262 -14.6465 -7.04004 -20.1602
c2.85156 -6.79004 3.79297 -14.3711 -0.640625 -21.7598c-0.694336 -1.1582 -1.69824 -1.92285 -2.55957 -2.87988v-88v-0.0791016c0 -5.65332 -4.58789 -10.2412 -10.2412 -10.2412c-1.85938 0 -4.58301 0.896484 -6.0791 2l-34.8799 26.2402l-34.8799 -26.2402
c-1.49609 -1.10352 -4.21973 -2 -6.0791 -2c-5.65332 0 -10.2412 4.58789 -10.2412 10.2412v0.0791016v88c-0.861328 0.957031 -1.86523 1.72168 -2.55957 2.87988c-3.81543 6.35938 -3.53809 14.4775 -0.640625 21.7598c-4.8584 5.51367 -8.33301 12.3984 -7.04004 20.1602
c1.30371 7.82227 6.79688 13.333 13.4404 16.96c-0.241211 7.35156 1.39648 15.1328 7.67969 20.1602c6.31934 5.05469 13.9941 5.40234 21.1201 3.83984c4.76758 6.17773 11.2979 10.5596 19.2002 10.5596zM235.52 128.32
c0.458984 -0.339844 1.27637 -0.956055 0.960938 -0.640625l-0.320312 -0.319336c-0.197266 0.338867 -0.426758 0.629883 -0.640625 0.959961zM215.04 120.32c-1.59277 0 -3.94336 -1.58984 -4.48047 -3.2002c-0.837891 -2.39062 -3.41797 -5.11426 -5.75977 -6.08008
c-0.173828 -0.0947266 -0.459961 -0.238281 -0.639648 -0.320312c-0.0869141 -0.0898438 -0.229492 -0.233398 -0.320312 -0.319336c-0.0439453 -0.000976562 -0.115234 -0.00195312 -0.160156 -0.00195312c-0.0439453 0 -0.115234 0.000976562 -0.160156 0.00195312
c-1.31152 -0.757812 -3.60547 -1.37207 -5.11914 -1.37207c-1.51465 0 -3.80859 0.614258 -5.12012 1.37207c-1.50488 0.902344 -4.28125 1.18359 -5.76074 0c-1.73926 -1.3916 -1.71582 -1.89062 -0.639648 -5.12012
c0.348633 -0.94043 0.635742 -2.51758 0.639648 -3.52051c0 -1.41504 -0.726562 -1.61035 -1.2793 -2.87988c-0.332031 -4.32227 -4.05957 -8.47949 -8.32031 -9.28027c-1.59375 -0.265625 -3.57422 -2.24512 -3.83984 -3.83984
c-0.295898 -1.77539 0.735352 -3.89746 2.24023 -4.7998c2.63867 -1.6543 4.78906 -5.52539 4.7998 -8.63965v-3.2002v-0.0078125c0 -1.98047 -1.00391 -4.84473 -2.24023 -6.39258c-1.59961 -1.99902 -1.21289 -2.77832 0 -4.7998
c0.902344 -1.50391 3.02441 -2.53613 4.7998 -2.24023c0.464844 0.078125 1.22559 0.141602 1.69727 0.141602c2.35156 0 5.60547 -1.35352 7.2627 -3.02148c0.676758 -0.457031 1.73926 -1.24902 2.87988 -2.87988c1.26855 -1.81152 2.24023 -4.4375 2.24023 -6.40039
c0 -1.43945 0.987305 -2.83203 2.24023 -3.51953c2.25781 -0.75293 4.07715 -0.0820312 5.75977 1.59961c1.64453 1.5918 4.83496 2.88281 7.12305 2.88281c0.0654297 0 0.171875 -0.000976562 0.237305 -0.00195312h1.91992h1.91992
c0.0654297 0.000976562 0.171875 0.00195312 0.237305 0.00195312c2.28809 0 5.47852 -1.29102 7.12305 -2.88281c1.46289 -1.46289 3.47656 -2.23926 4.16016 -2.23926c0.511719 0 0.257812 0.0322266 0.319336 0c0.34082 0.201172 0.914062 0.487305 1.28027 0.639648
c2.25879 0.75293 2.24023 0.789062 2.24023 3.51953c0.0175781 2.4082 1.45117 5.70508 3.19922 7.36035c0.119141 0.119141 0.202148 -0.111328 0.320312 0c0.420898 0.395508 0.268555 0.352539 0.640625 0.639648l-0.00195312 0.160156l0.00195312 0.160156
c1.69629 2.20801 5.33398 4 8.11914 4c0.500977 0 1.30762 -0.0712891 1.80078 -0.160156c1.77539 -0.295898 3.89648 0.736328 4.7998 2.24023c0.385742 0.643555 -0.0332031 4.73828 -0.320312 5.12012c-1.05957 1.47754 -1.9209 4.15234 -1.9209 5.9707
l0.000976562 0.109375v3.2002c0.0107422 3.11426 2.16113 6.98535 4.7998 8.63965c1.50488 0.902344 2.53613 3.02441 2.24023 4.7998c-0.265625 1.59473 -2.24609 3.57422 -3.83984 3.83984c-4.26074 0.800781 -7.98828 4.95801 -8.32031 9.28027
c-0.552734 1.26953 -1.28027 1.46484 -1.28027 2.87988c0.00488281 1.00293 0.291016 2.58008 0.640625 3.52051c1.07617 3.22949 1.09961 3.72852 -0.640625 5.12012c-1.47949 1.18359 -4.25488 0.902344 -5.75977 0
c-1.28125 -0.712891 -3.51074 -1.29102 -4.97656 -1.29102c-0.12793 0 -0.334961 0.00488281 -0.462891 0.0107422c-0.512695 0 -2.74219 -0.0693359 -5.44043 1.28027c-2.69824 1.34863 -3.32812 2.04785 -3.83984 2.55957
c-0.988281 0.974609 -2.13574 2.83887 -2.56055 4.16016c-0.860352 2.58203 -1.21289 3.2002 -4.47949 3.2002zM184.32 27.5195v-50.5596l24.6396 18.5596c1.49609 1.10449 4.2207 2.00098 6.08008 2.00098s4.58301 -0.896484 6.08008 -2.00098l24.6396 -18.5596v50.2402
c-1.9873 -2.44531 -4.51367 -4.42871 -7.67969 -5.75977v-0.320312c-0.207031 -0.103516 -0.425781 0.09375 -0.639648 0c-0.219727 -0.0839844 -0.487305 -0.152344 -0.640625 -0.320312c-3.03613 -1.15625 -6.5459 -1.91992 -8.31934 -1.91992
c-4.6543 0 -7.88867 3.00098 -11.5205 5.12012h-1.91992c-0.078125 -0.0488281 -0.241211 0.0478516 -0.320312 0c-6.21484 -3.82324 -13.6621 -6.1123 -21.4395 -3.51953c-0.0908203 0.0859375 -0.234375 0.229492 -0.320312 0.319336
c-3.53418 1.41406 -6.32617 3.75977 -8.63965 6.71973z" />
    <glyph glyph-name="diploma-2" unicode="&#xf10a;" 
d="M102.4 407.04h266.239c0.53418 0 1.06934 0.0117188 1.60059 0c38.6494 -0.859375 70.0801 -32.8369 70.0801 -71.6797v-348.16c-0.000976562 -5.65234 -4.58887 -10.2393 -10.2402 -10.2402h-61.4404v20.4805h51.2002v337.92
c0 27.877 -22.4854 50.6719 -50.2402 51.1992c-0.327148 0.00683594 -0.630859 0 -0.959961 0c-28.2061 0 -51.1992 -22.9932 -51.1992 -51.1992v-30.7207c-0.000976562 -5.65137 -4.58887 -10.2393 -10.2402 -10.2393h-194.561v-296.96h133.12v-20.4805h-143.359
c-5.65234 0.000976562 -10.2402 4.58789 -10.2402 10.2402v307.2h-51.2002c-5.65234 0 -10.2393 4.58789 -10.2402 10.2393v30.7207c0 39.377 32.3027 71.6797 71.6807 71.6797zM102.4 386.56c-28.207 0 -51.2002 -22.9932 -51.2002 -51.1992v-20.4805h245.76v20.4805
c0 20.1025 8.59863 38.1416 22.0801 51.1992h-216.64zM163.84 263.68h204.8v-20.4795h-204.8v20.4795zM163.84 202.24h204.8v-20.4805h-204.8v20.4805zM307.2 140.8c8.04297 0 14.5439 -4.66016 19.2002 -10.5596c7.12598 1.5625 14.8008 1.21484 21.1191 -3.83984
c6.2832 -5.02734 7.92188 -12.8086 7.68066 -20.1602c6.64355 -3.62695 12.1357 -9.1377 13.4395 -16.96c1.29395 -7.76172 -2.18164 -14.6465 -7.04004 -20.1602c2.85254 -6.79004 3.79395 -14.3711 -0.639648 -21.7598
c-0.694336 -1.1582 -1.69824 -1.92285 -2.55957 -2.87988v-88v-0.0791016c0 -5.65332 -4.58789 -10.2412 -10.2412 -10.2412c-1.85938 0 -4.58301 0.896484 -6.0791 2l-34.8799 26.2402l-34.8799 -26.2402c-1.49707 -1.10352 -4.21973 -2 -6.08008 -2
c-5.65234 0 -10.2402 4.58789 -10.2402 10.2412v0.0791016v88c-0.861328 0.957031 -1.86523 1.72168 -2.55957 2.87988c-3.81641 6.35938 -3.53809 14.4775 -0.640625 21.7598c-4.8584 5.51367 -8.33301 12.3984 -7.04004 20.1602
c1.30371 7.82227 6.79688 13.333 13.4404 16.96c-0.241211 7.35156 1.39648 15.1328 7.67969 20.1602c6.31934 5.05469 13.9932 5.40234 21.1201 3.83984c4.76758 6.17773 11.2979 10.5596 19.2002 10.5596zM327.68 128.32
c0.458008 -0.339844 1.27637 -0.956055 0.959961 -0.640625l-0.319336 -0.319336c-0.197266 0.338867 -0.426758 0.629883 -0.640625 0.959961zM307.2 120.32c-1.59277 0 -3.94336 -1.58984 -4.48047 -3.2002c-0.837891 -2.39062 -3.41797 -5.11426 -5.75977 -6.08008
c-0.173828 -0.0947266 -0.459961 -0.238281 -0.639648 -0.320312c-0.0869141 -0.0898438 -0.230469 -0.233398 -0.320312 -0.319336c-0.0439453 -0.000976562 -0.116211 -0.00195312 -0.160156 -0.00195312s-0.115234 0.000976562 -0.160156 0.00195312
c-1.31152 -0.757812 -3.60547 -1.37207 -5.12012 -1.37207c-1.51367 0 -3.80762 0.614258 -5.11914 1.37207c-1.50488 0.902344 -4.28125 1.18359 -5.76074 0c-1.73926 -1.3916 -1.71582 -1.89062 -0.639648 -5.12012
c0.348633 -0.94043 0.635742 -2.51758 0.639648 -3.52051c0 -1.41504 -0.726562 -1.61035 -1.2793 -2.87988c-0.333008 -4.32227 -4.05957 -8.47949 -8.32031 -9.28027c-1.59375 -0.265625 -3.57422 -2.24512 -3.83984 -3.83984
c-0.295898 -1.77539 0.735352 -3.89746 2.24023 -4.7998c2.6377 -1.6543 4.78809 -5.52539 4.7998 -8.63965v-3.2002v-0.0078125c0 -1.98047 -1.00391 -4.84473 -2.24023 -6.39258c-1.59961 -1.99902 -1.21289 -2.77832 0 -4.7998
c0.902344 -1.50391 3.02344 -2.53613 4.7998 -2.24023c0.464844 0.078125 1.22559 0.141602 1.69629 0.141602c2.35254 0 5.60645 -1.35352 7.26367 -3.02148c0.676758 -0.457031 1.73926 -1.24902 2.87988 -2.87988c1.26855 -1.81152 2.24023 -4.4375 2.24023 -6.40039
c0 -1.43945 0.987305 -2.83203 2.24023 -3.51953c2.25781 -0.75293 4.07715 -0.0820312 5.75977 1.59961c1.64355 1.5918 4.83496 2.88281 7.12305 2.88281c0.0654297 0 0.171875 -0.000976562 0.237305 -0.00195312h1.91992h1.91992
c0.0654297 0.000976562 0.171875 0.00195312 0.237305 0.00195312c2.28809 0 5.47852 -1.29102 7.12305 -2.88281c1.46289 -1.46289 3.47656 -2.23926 4.15918 -2.23926c0.512695 0 0.258789 0.0322266 0.320312 0c0.34082 0.201172 0.914062 0.487305 1.28027 0.639648
c2.25781 0.75293 2.24023 0.789062 2.24023 3.51953c0.0175781 2.4082 1.45117 5.70508 3.19922 7.36035c0.119141 0.119141 0.202148 -0.111328 0.320312 0c0.420898 0.395508 0.268555 0.352539 0.639648 0.639648l-0.000976562 0.160156l0.000976562 0.160156
c1.69727 2.20801 5.33496 4 8.12012 4c0.5 0 1.30664 -0.0712891 1.7998 -0.160156c1.77637 -0.295898 3.89746 0.736328 4.80078 2.24023c0.385742 0.643555 -0.0332031 4.73828 -0.320312 5.12012c-1.06055 1.47754 -1.9209 4.15234 -1.9209 5.9707l0.000976562 0.109375
v3.2002c0.0107422 3.11426 2.16113 6.98535 4.7998 8.63965c1.50488 0.902344 2.53613 3.02441 2.24023 4.7998c-0.265625 1.59473 -2.24609 3.57422 -3.83984 3.83984c-4.26074 0.800781 -7.98828 4.95801 -8.32031 9.28027
c-0.553711 1.26953 -1.28027 1.46484 -1.28027 2.87988c0.00488281 1.00293 0.291016 2.58008 0.640625 3.52051c1.07617 3.22949 1.09961 3.72852 -0.640625 5.12012c-1.47949 1.18359 -4.25488 0.902344 -5.75977 0
c-1.28125 -0.712891 -3.51074 -1.29102 -4.97656 -1.29102c-0.12793 0 -0.335938 0.00488281 -0.463867 0.0107422c-0.511719 0 -2.74121 -0.0693359 -5.43945 1.28027c-2.69824 1.34863 -3.32812 2.04785 -3.83984 2.55957
c-0.988281 0.974609 -2.13574 2.83887 -2.56055 4.16016c-0.860352 2.58203 -1.21289 3.2002 -4.47949 3.2002zM276.48 27.5195v-50.5596l24.6396 18.5596c1.49609 1.10449 4.21973 2.00098 6.08008 2.00098c1.85938 0 4.58301 -0.896484 6.08008 -2.00098l24.6396 -18.5596
v50.2402c-1.9873 -2.44531 -4.51367 -4.42871 -7.67969 -5.75977v-0.320312c-0.207031 -0.103516 -0.425781 0.09375 -0.640625 0c-0.21875 -0.0839844 -0.486328 -0.152344 -0.639648 -0.320312c-3.03613 -1.15625 -6.5459 -1.91992 -8.32031 -1.91992
c-4.6543 0 -7.8877 3.00098 -11.5195 5.12012h-1.91992c-0.0791016 -0.0488281 -0.241211 0.0478516 -0.320312 0c-6.21484 -3.82324 -13.6631 -6.1123 -21.4395 -3.51953c-0.0908203 0.0859375 -0.234375 0.229492 -0.320312 0.319336
c-3.53516 1.41406 -6.32715 3.75977 -8.63965 6.71973z" />
    <glyph glyph-name="apartment" unicode="&#xf103;" 
d="M133.12 441.92l7.36035 -7.04004l115.52 -115.52l115.52 115.52l7.36035 7.04004l7.36035 -7.04004l122.88 -122.88l2.87988 -3.2002v-4.16016v-348.159v-10.2402h-10.2402h-245.76h-245.76h-10.2402v10.2402v348.159v4.16016l2.87988 3.2002l122.88 122.88z
M133.12 412.8l-112.64 -112.64v-333.44h225.279v333.44zM378.88 412.8l-112.64 -112.64v-333.44h225.279v333.44zM40.96 284.16h10.2402h61.4395h10.2402v-10.2402v-61.4395v-10.2402h-10.2402h-61.4395h-10.2402v10.2402v61.4395v10.2402zM143.36 284.16h10.2393h61.4404
h10.2402v-10.2402v-61.4395v-10.2402h-10.2402h-61.4404h-10.2393v10.2402v61.4395v10.2402zM286.72 284.16h10.2402h61.4404h10.2393v-10.2402v-61.4395v-10.2402h-10.2393h-61.4404h-10.2402v10.2402v61.4395v10.2402zM389.12 284.16h10.2402h61.4395h10.2402v-10.2402
v-61.4395v-10.2402h-10.2402h-61.4395h-10.2402v10.2402v61.4395v10.2402zM61.4404 263.68v-40.96h40.96v40.96h-40.96zM163.84 263.68v-40.96h40.96v40.96h-40.96zM307.2 263.68v-40.96h40.96v40.96h-40.96zM409.6 263.68v-40.96h40.96v40.96h-40.96zM40.96 181.76h10.2402
h61.4395h10.2402v-10.2402v-61.4395v-10.2402h-10.2402h-61.4395h-10.2402v10.2402v61.4395v10.2402zM143.36 181.76h10.2393h61.4404h10.2402v-10.2402v-61.4395v-10.2402h-10.2402h-61.4404h-10.2393v10.2402v61.4395v10.2402zM286.72 181.76h10.2402h61.4404h10.2393
v-10.2402v-61.4395v-10.2402h-10.2393h-61.4404h-10.2402v10.2402v61.4395v10.2402zM389.12 181.76h10.2402h61.4395h10.2402v-10.2402v-61.4395v-10.2402h-10.2402h-61.4395h-10.2402v10.2402v61.4395v10.2402zM61.4404 161.28v-40.96h40.96v40.96h-40.96zM163.84 161.28
v-40.96h40.96v40.96h-40.96zM307.2 161.28v-40.96h40.96v40.96h-40.96zM409.6 161.28v-40.96h40.96v40.96h-40.96zM40.96 79.3604h10.2402h61.4395h10.2402v-10.2402v-61.4404v-10.2393h-10.2402h-61.4395h-10.2402v10.2393v61.4404v10.2402zM143.36 79.3604h10.2393
h61.4404h10.2402v-10.2402v-61.4404v-10.2393h-10.2402h-61.4404h-10.2393v10.2393v61.4404v10.2402zM286.72 79.3604h10.2402h61.4404h10.2393v-10.2402v-61.4404v-10.2393h-10.2393h-61.4404h-10.2402v10.2393v61.4404v10.2402zM389.12 79.3604h10.2402h61.4395h10.2402
v-10.2402v-61.4404v-10.2393h-10.2402h-61.4395h-10.2402v10.2393v61.4404v10.2402zM61.4404 58.8799v-40.96h40.96v40.96h-40.96zM163.84 58.8799v-40.96h40.96v40.96h-40.96zM307.2 58.8799v-40.96h40.96v40.96h-40.96zM409.6 58.8799v-40.96h40.96v40.96h-40.96z" />
    <glyph glyph-name="checked-checkbox-2-filled" unicode="&#xf118;" 
d="M246.641 105.503l218.419 258.478c3.83008 -8.77539 5.98047 -18.4414 5.98047 -28.6201v-286.721c0 -39.5879 -32.0918 -71.6797 -71.6797 -71.6797h-286.721c-39.5879 0 -71.6797 32.0918 -71.6797 71.6797v286.721c0 39.5879 32.0918 71.6797 71.6797 71.6797h286.721
c21.6982 0 41.0928 -9.67676 54.2412 -24.9033l-208.723 -246.989l-83.2715 77.6602l-13.9668 -14.9814z" />
    <glyph glyph-name="cup" unicode="&#xf11f;" 
d="M265.28 438.08c0.265625 0.0253906 0.698242 0.0458984 0.964844 0.0458984c5.65332 0 10.2412 -4.58789 10.2412 -10.2412c0 -0.100586 -0.00292969 -0.263672 -0.00585938 -0.365234c0 -37.3711 -18.5713 -55.6895 -33.9209 -69.4395
c-15.3486 -13.75 -27.1992 -22.8828 -27.1992 -53.4404l0.000976562 -0.144531c0 -5.65332 -4.58789 -10.2412 -10.2412 -10.2412s-10.2412 4.58789 -10.2412 10.2412l0.000976562 0.144531c0 36.7705 18.6318 54.7852 33.9199 68.4805
c15.2891 13.6953 27.2002 23.1221 27.2002 54.3994l-0.00292969 0.24707c0 4.52734 3.58496 9.00391 8.00293 9.99316c0.347656 0.111328 0.920898 0.254883 1.28027 0.320312zM316.48 386.88c0.265625 0.0253906 0.698242 0.0458984 0.964844 0.0458984
c5.65332 0 10.2412 -4.58789 10.2412 -10.2412c0 -0.100586 -0.00292969 -0.263672 -0.00683594 -0.364258c0 -26.0801 -13.6914 -40.1035 -24 -49.2803s-16.96 -13.4316 -16.96 -32.6396l0.000976562 -0.145508c0 -5.65234 -4.58789 -10.2412 -10.2402 -10.2412
c-5.65332 0 -10.2412 4.58887 -10.2412 10.2412l0.000976562 0.145508c0 25.4785 13.7871 38.9082 24 48c10.2119 9.09082 16.96 13.9199 16.96 33.9199l-0.00292969 0.246094c0 4.52734 3.58496 9.00391 8.00293 9.99316
c0.347656 0.111328 0.920898 0.254883 1.28027 0.320312zM110.72 263.68c0.132812 0.00683594 0.347656 0.0117188 0.480469 0.0117188s0.347656 -0.00488281 0.479492 -0.0117188c0.132812 0.00683594 0.347656 0.0117188 0.480469 0.0117188
s0.347656 -0.00488281 0.479492 -0.0117188h256c5.65234 0 10.2402 -4.58789 10.2402 -10.2393v-61.4404h30.7197c16.8359 0 30.6504 -5.58984 39.3604 -15.3604c8.70996 -9.76953 11.8398 -22.5625 11.8398 -35.8398c0 -24.7998 -4.47949 -52.1367 -17.9199 -74.2402
c-12.5781 -20.6836 -34.3564 -36.1621 -64 -38.0791v-61.7607c0 -16.8438 -13.875 -30.7197 -30.7197 -30.7197h-215.04c-16.8447 0 -30.7197 13.876 -30.7197 30.7197v286.721c-0.000976562 0.0498047 -0.00195312 0.129883 -0.00195312 0.179688
c0 4.67676 3.72852 9.18359 8.32129 10.0596zM122.88 243.2v-276.48c0 -5.78516 4.4541 -10.2393 10.2402 -10.2393h215.04c5.78613 0 10.2402 4.4541 10.2402 10.2393v276.48h-235.521zM378.88 171.52v-122.56c22.6787 1.68457 36.7051 12.5361 46.4004 28.4805
c10.5586 17.3643 15.04 41.2295 15.04 63.3594c0 9.92676 -2.34375 17.4912 -6.7207 22.4004c-4.37598 4.90918 -11.2627 8.31934 -24 8.31934h-30.7197z" />
    <glyph glyph-name="tv" unicode="&#xf112;" 
d="M0 376.32h10.2402h491.52h10.2402v-10.2402v-307.2v-10.2402h-10.2402h-491.52h-10.2402v10.2402v307.2v10.2402zM20.4805 355.84v-286.72h471.039v286.72h-471.039zM110.72 28.1602c0.132812 0.00585938 0.347656 0.0107422 0.480469 0.0107422
s0.347656 -0.00488281 0.479492 -0.0107422c0.132812 0.00585938 0.347656 0.0107422 0.480469 0.0107422s0.347656 -0.00488281 0.479492 -0.0107422h286.721c0.0400391 0 0.104492 0.000976562 0.144531 0.000976562c5.65332 0 10.2412 -4.58789 10.2412 -10.2412
s-4.58789 -10.2412 -10.2412 -10.2412c-0.0400391 0 -0.104492 0.000976562 -0.144531 0.000976562h-286.721c-0.263672 -0.0244141 -0.694336 -0.0449219 -0.959961 -0.0449219c-5.67676 0 -10.2842 4.6084 -10.2842 10.2852c0 5.16992 4.17676 9.75781 9.32422 10.2402z
" />
    <glyph glyph-name="checkmark" unicode="&#xf122;" 
d="M439.04 359.68c0.419922 0.0634766 1.10645 0.115234 1.53125 0.115234c5.65332 0 10.2412 -4.58789 10.2412 -10.2412c0 -1.78223 -0.830078 -4.41406 -1.85254 -5.87402l-216 -334.72c-1.66504 -2.62207 -5.53809 -4.74902 -8.64453 -4.74902
c-2.1123 0 -5.12109 1.12402 -6.71582 2.50879l-152.64 138.24c-2.67676 1.6582 -4.84863 5.55859 -4.84863 8.70605c0 5.65332 4.58789 10.2412 10.2412 10.2412c2.74512 0 6.34961 -1.75 8.04785 -3.90723l144 -129.92l209.279 324.479
c1.20508 2.0752 4.07227 4.22559 6.40039 4.80078c0.260742 0.100586 0.69043 0.244141 0.959961 0.319336z" />
    <glyph glyph-name="checked-checkbox-2" unicode="&#xf114;" 
d="M112.64 407.04h286.721l-16.3203 -20.4805h-270.4c-28.6719 0 -51.1992 -22.5273 -51.1992 -51.1992v-286.721c0 -28.6719 22.5273 -51.1992 51.1992 -51.1992h286.721c28.6719 0 51.1992 22.5273 51.1992 51.1992v222.08l20.4805 23.6807v-245.761
c0 -39.9355 -31.7441 -71.6797 -71.6797 -71.6797h-286.721c-39.9355 0 -71.6797 31.7441 -71.6797 71.6797v286.721c0 39.9355 31.7441 71.6797 71.6797 71.6797zM442.88 368.64l15.3604 -13.1201l-204.8 -241.92l-6.7207 -8l-8 7.36035l-91.2002 84.7998l14.0801 15.04
l83.2002 -77.7598z" />
    <glyph glyph-name="unchecked-checkbox" unicode="&#xf115;" 
d="M112.64 407.04h286.721c39.4678 0 71.6797 -32.2119 71.6797 -71.6797v-286.721c0 -39.4678 -32.2119 -71.6797 -71.6797 -71.6797h-286.721c-39.4678 0 -71.6797 32.2119 -71.6797 71.6797v286.721c0 39.4678 32.2119 71.6797 71.6797 71.6797zM112.64 386.56
c-28.4023 0 -51.1992 -22.7969 -51.1992 -51.1992v-286.721c0 -28.4023 22.7969 -51.1992 51.1992 -51.1992h286.721c28.4023 0 51.1992 22.7969 51.1992 51.1992v286.721c0 28.4023 -22.7969 51.1992 -51.1992 51.1992h-286.721z" />
    <glyph glyph-name="department" unicode="&#xf10e;" 
d="M254.4 427.52c0.360352 0.046875 0.947266 0.0849609 1.31055 0.0849609c0.801758 0 2.07812 -0.181641 2.84863 -0.404297l245.761 -62.4004c4.23926 -1.09473 7.67969 -5.53711 7.67969 -9.91504v-0.00488281v-377.92
c-0.000976562 -5.65137 -4.58789 -10.2393 -10.2402 -10.2402h-203.84h-84.4795h-203.2c-5.65234 0.000976562 -10.2393 4.58887 -10.2402 10.2402v377.92v0.00488281c0 4.37793 3.44043 8.82031 7.67969 9.91504l245.761 62.4004
c0.259766 0.101562 0.69043 0.244141 0.959961 0.319336zM256 406.72l-235.52 -59.8398v-359.68h184.319v122.88v0.0439453c0 5.14551 4.15723 9.71289 9.28027 10.1963c0.132812 0.00585938 0.347656 0.0107422 0.479492 0.0107422
c0.132812 0 0.347656 -0.00488281 0.480469 -0.0107422h81.9199c5.65234 -0.000976562 10.2393 -4.58789 10.2402 -10.2402v-122.88h184.319v359.68zM69.7598 325.12c0.132812 0.00585938 0.347656 0.0107422 0.480469 0.0107422
c0.131836 0 0.347656 -0.00488281 0.479492 -0.0107422c0.132812 0.00585938 0.347656 0.0107422 0.480469 0.0107422s0.347656 -0.00488281 0.479492 -0.0107422h81.9199c5.65234 -0.000976562 10.2402 -4.58789 10.2402 -10.2402v-61.4395
c0 -5.65234 -4.58789 -10.2402 -10.2402 -10.2402h-81.9199c-5.65137 0 -10.2393 4.58789 -10.2393 10.2402v61.4395c-0.000976562 0.0498047 -0.00195312 0.130859 -0.00195312 0.180664c0 4.67676 3.72754 9.18262 8.32129 10.0596zM213.12 325.12
c0.131836 0.00585938 0.347656 0.0107422 0.479492 0.0107422c0.132812 0 0.347656 -0.00488281 0.480469 -0.0107422c0.132812 0.00585938 0.347656 0.0107422 0.479492 0.0107422c0.132812 0 0.347656 -0.00488281 0.480469 -0.0107422h81.9199
c5.65234 -0.000976562 10.2393 -4.58789 10.2402 -10.2402v-61.4395c-0.000976562 -5.65234 -4.58789 -10.2402 -10.2402 -10.2402h-81.9199c-5.65234 0 -10.2393 4.58789 -10.2402 10.2402v61.4395l-0.000976562 0.180664c0 4.67676 3.72754 9.18262 8.32129 10.0596z
M356.48 325.12c0.131836 0.00585938 0.34668 0.0107422 0.479492 0.0107422s0.347656 -0.00488281 0.480469 -0.0107422c0.131836 0.00585938 0.34668 0.0107422 0.479492 0.0107422s0.347656 -0.00488281 0.480469 -0.0107422h81.9199
c5.65137 -0.000976562 10.2393 -4.58789 10.2393 -10.2402v-61.4395c0 -5.65234 -4.58789 -10.2402 -10.2393 -10.2402h-81.9199c-5.65234 0 -10.2402 4.58789 -10.2402 10.2402v61.4395l-0.00195312 0.180664c0 4.67676 3.72852 9.18262 8.32227 10.0596zM81.9199 304.64
v-40.96h61.4404v40.96h-61.4404zM225.28 304.64v-40.96h61.4395v40.96h-61.4395zM368.64 304.64v-40.96h61.4404v40.96h-61.4404zM69.7598 222.72c0.132812 0.00683594 0.347656 0.0117188 0.480469 0.0117188c0.131836 0 0.347656 -0.00488281 0.479492 -0.0117188
c0.132812 0.00683594 0.347656 0.0117188 0.480469 0.0117188s0.347656 -0.00488281 0.479492 -0.0117188h81.9199c5.65234 0 10.2402 -4.58789 10.2402 -10.2393v-61.4404c0 -5.65234 -4.58789 -10.2393 -10.2402 -10.2402h-81.9199
c-5.65137 0.000976562 -10.2393 4.58789 -10.2393 10.2402v61.4404c-0.000976562 0.0498047 -0.00195312 0.129883 -0.00195312 0.179688c0 4.67676 3.72754 9.18359 8.32129 10.0596zM213.12 222.72c0.131836 0.00683594 0.347656 0.0117188 0.479492 0.0117188
c0.132812 0 0.347656 -0.00488281 0.480469 -0.0117188c0.132812 0.00683594 0.347656 0.0117188 0.479492 0.0117188c0.132812 0 0.347656 -0.00488281 0.480469 -0.0117188h81.9199c5.65234 0 10.2393 -4.58789 10.2402 -10.2393v-61.4404
c-0.000976562 -5.65234 -4.58789 -10.2393 -10.2402 -10.2402h-81.9199c-5.65234 0.000976562 -10.2393 4.58789 -10.2402 10.2402v61.4404l-0.000976562 0.179688c0 4.67676 3.72754 9.18359 8.32129 10.0596zM356.48 222.72
c0.131836 0.00683594 0.34668 0.0117188 0.479492 0.0117188s0.347656 -0.00488281 0.480469 -0.0117188c0.131836 0.00683594 0.34668 0.0117188 0.479492 0.0117188s0.347656 -0.00488281 0.480469 -0.0117188h81.9199c5.65137 0 10.2393 -4.58789 10.2393 -10.2393
v-61.4404c0 -5.65234 -4.58789 -10.2393 -10.2393 -10.2402h-81.9199c-5.65234 0.000976562 -10.2402 4.58789 -10.2402 10.2402v61.4404l-0.00195312 0.179688c0 4.67676 3.72852 9.18359 8.32227 10.0596zM81.9199 202.24v-40.96h61.4404v40.96h-61.4404zM225.28 202.24
v-40.96h61.4395v40.96h-61.4395zM368.64 202.24v-40.96h61.4404v40.96h-61.4404zM69.7598 120.32c0.132812 0.00585938 0.347656 0.0107422 0.480469 0.0107422c0.131836 0 0.347656 -0.00488281 0.479492 -0.0107422
c0.132812 0.00585938 0.347656 0.0107422 0.480469 0.0107422s0.347656 -0.00488281 0.479492 -0.0107422h81.9199c5.65234 -0.000976562 10.2402 -4.58789 10.2402 -10.2402v-61.4404c0 -5.65137 -4.58789 -10.2393 -10.2402 -10.2393h-81.9199
c-5.65137 0 -10.2393 4.58789 -10.2393 10.2393v61.4404c-0.000976562 0.0498047 -0.00195312 0.130859 -0.00195312 0.180664c0 4.67578 3.72754 9.18262 8.32129 10.0596zM356.48 120.32c0.131836 0.00585938 0.34668 0.0107422 0.479492 0.0107422
s0.347656 -0.00488281 0.480469 -0.0107422c0.131836 0.00585938 0.34668 0.0107422 0.479492 0.0107422s0.347656 -0.00488281 0.480469 -0.0107422h81.9199c5.65137 -0.000976562 10.2393 -4.58789 10.2393 -10.2402v-61.4404
c0 -5.65137 -4.58789 -10.2393 -10.2393 -10.2393h-81.9199c-5.65234 0 -10.2402 4.58789 -10.2402 10.2393v61.4404l-0.00195312 0.180664c0 4.67578 3.72852 9.18262 8.32227 10.0596zM81.9199 99.8398v-40.96h61.4404v40.96h-61.4404zM225.28 99.8398v-112.64h61.4395
v112.64h-61.4395zM368.64 99.8398v-40.96h61.4404v40.96h-61.4404z" />
    <glyph glyph-name="coffee-to-go" unicode="&#xf11d;" 
d="M139.2 448h233.6c15.6836 0 29.8066 -10.3789 32.96 -25.9199l0.00195312 -0.160156l-0.00195312 -0.160156l2.56055 -14.7197h1.2793c20.416 0 34.7637 -14.2275 41.9199 -30.4004c7.15723 -16.1719 9.28027 -35.0176 9.28027 -51.5195
c0 -5.65234 -4.58789 -10.2393 -10.2402 -10.2402h-11.8398l-50.5596 -357.12l0.000976562 -0.160156l-0.000976562 -0.15918c-2.15918 -13.335 -14.165 -21.4404 -27.2002 -21.4404h-209.92c-13.0303 0 -25.0391 8.09668 -27.2002 21.4404l-0.000976562 0.15918
l0.000976562 0.160156l-50.5596 357.12h-11.8398c-5.65234 0.000976562 -10.2402 4.58789 -10.2402 10.2402c0 16.502 2.12305 35.3477 9.28027 51.5195c7.15625 16.1729 21.5039 30.4004 41.9199 30.4004h1.2793l2.56055 14.7197
c-0.000976562 0.0439453 -0.00195312 0.116211 -0.00195312 0.160156s0.000976562 0.116211 0.00195312 0.160156c3.14062 15.5566 17.2764 25.9199 32.96 25.9199zM139.2 427.52c-5.75977 0 -11.9678 -5.15527 -12.7998 -9.2793l-1.60059 -11.2002h262.4l-1.60059 11.2002
c-0.839844 4.13965 -7.04004 9.2793 -12.7998 9.2793h-233.6zM113.92 386.88c-0.347656 -0.111328 -0.920898 -0.253906 -1.28027 -0.320312h-10.2393c-11.8203 0 -18.0967 -6.34473 -23.3604 -18.2393c-4.01953 -9.08301 -4.91406 -21.3076 -5.75977 -32.96h365.439
c-0.845703 11.6523 -1.74023 23.877 -5.75977 32.96c-5.26367 11.8945 -11.54 18.2393 -23.3604 18.2393h-10.2393c-0.449219 0.0537109 -1.16602 0.197266 -1.60059 0.320312l-0.319336 -0.00488281l-0.320312 0.00488281l-0.160156 -0.000976562l-0.160156 0.000976562
c-0.521484 -0.138672 -1.38184 -0.282227 -1.91992 -0.320312h-278.399c-0.539062 0.0380859 -1.39941 0.181641 -1.9209 0.320312l-0.319336 -0.00488281zM93.7598 314.88l16 -112.64h54.0801c16.002 41.3975 50.4082 71.6797 92.1602 71.6797
s76.1582 -30.2822 92.1602 -71.6797h54.0801l16 112.64h-324.48zM256 253.44c-33.8555 0 -63.8164 -26.0547 -76.1602 -64.6406c-1.26172 -3.83496 -5.5625 -6.98926 -9.59961 -7.04004h-57.6006l8.64062 -61.4395h48.96
c4.03711 -0.0507812 8.33789 -3.20508 9.59961 -7.04004c12.3438 -38.5859 42.3047 -64.6406 76.1602 -64.6406s63.8164 26.0547 76.1602 64.6406c1.26172 3.83496 5.5625 6.98926 9.59961 7.04004h48.96l8.64062 61.4395h-57.6006
c-4.03711 0.0507812 -8.33789 3.20508 -9.59961 7.04004c-12.3438 38.5859 -42.3047 64.6406 -76.1602 64.6406zM256 212.48c29.541 0 51.2002 -28.7314 51.2002 -61.4404s-21.6592 -61.4404 -51.2002 -61.4404s-51.2002 28.7314 -51.2002 61.4404
s21.6592 61.4404 51.2002 61.4404zM256 192c-15.7021 0 -30.7197 -17.1035 -30.7197 -40.96s15.0176 -40.96 30.7197 -40.96s30.7197 17.1035 30.7197 40.96s-15.0176 40.96 -30.7197 40.96zM124.16 99.8398l19.8398 -138.88
c0.173828 -1.07422 3.56348 -4.47949 7.04004 -4.47949h209.92c3.49219 0 6.86426 3.39551 7.04004 4.47949l19.8398 138.88h-39.6797c-16.002 -41.3975 -50.4082 -71.6797 -92.1602 -71.6797s-76.1582 30.2822 -92.1602 71.6797h-39.6797z" />
    <glyph glyph-name="info" unicode="&#xf12b;" 
d="M256 448c141.264 0 256 -114.736 256 -256s-114.736 -256 -256 -256s-256 114.736 -256 256s114.736 256 256 256zM256 427.52c-130.195 0 -235.52 -105.324 -235.52 -235.52s105.324 -235.52 235.52 -235.52s235.52 105.324 235.52 235.52
s-105.324 235.52 -235.52 235.52zM243.52 315.84h24.9609c2.20117 0 3.51953 -1.31836 3.51953 -3.51953v-26.8799c0 -2.20215 -1.3291 -3.84082 -3.51953 -3.84082h-24.9609c-2.21094 0 -3.51953 1.63867 -3.51953 3.84082v26.8799
c0 2.20117 1.31836 3.51953 3.51953 3.51953zM242.88 241.92c0.446289 0.172852 0.732422 0 1.28027 0h23.6797c2.21191 0 3.52051 -1.31836 3.52051 -3.51953v-168.641c0 -2.21191 -1.31836 -3.51953 -3.52051 -3.51953h-23.6797
c-2.20215 0 -3.52051 1.31836 -3.52051 3.51953v168.641c0 1.65039 0.901367 3.00195 2.24023 3.51953z" />
    <glyph glyph-name="play" unicode="&#xf11b;" 
d="M102.4 394.24l15.3594 -8.95996l313.28 -184.32l15.04 -8.95996l-15.04 -8.95996l-313.28 -184.32l-15.3594 -8.95996v17.9199v368.641v17.9199zM122.88 358.4v-332.801l282.561 166.4z" />
    <glyph glyph-name="map-marker" unicode="&#xf108;" 
d="M286.72 448c56.4365 0 102.4 -45.9639 102.4 -102.4c0 -6.54688 -0.673828 -13.1787 -1.60059 -19.8398l109.44 59.5205c1.24219 0.65918 3.39258 1.19434 4.7998 1.19434c5.60449 0 10.1924 -4.5498 10.2402 -10.1543v-368.641
c-0.0283203 -3.36719 -2.46582 -7.38086 -5.44043 -8.95996l-112.64 -61.4395c-1.24414 -0.662109 -3.39844 -1.19922 -4.80859 -1.19922c-1.19727 0 -3.05664 0.393555 -4.15137 0.878906l-128.64 59.5205l-118.721 -59.5205
c-1.1709 -0.569336 -3.17773 -1.03223 -4.47949 -1.03223s-3.30957 0.462891 -4.48047 1.03223l-122.88 61.4404c-3.17969 1.54688 -5.75977 5.67188 -5.75977 9.20801v0.0712891v368.641v0.0791016c0 4.98535 4.01367 9.53711 8.95996 10.1602
c0.348633 0.0439453 0.915039 0.0791016 1.2666 0.0791016c1.30664 0 3.31934 -0.46582 4.49316 -1.03906l118.721 -59.5195l51.1992 23.3604c2.02734 54.667 46.9287 98.5596 102.08 98.5596zM286.72 427.52c-44.7168 0 -80.8877 -35.5391 -81.9199 -80
c0.541992 -1.14648 0.982422 -3.10742 0.982422 -4.37598c0 -1.03418 -0.296875 -2.65723 -0.662109 -3.62402c2.04688 -37.9219 22.7041 -82.7441 44.1602 -118.079c18.7402 -30.8643 31.6006 -45.6387 37.4395 -52.8008c5.91699 7.38379 18.7529 22.7832 37.4404 53.7607
c22.6133 37.4854 44.4795 85.1738 44.4795 123.199c0 45.3701 -36.5498 81.9199 -81.9199 81.9199zM286.72 386.56c28.1562 0 51.2002 -23.0439 51.2002 -51.1992c0 -28.1562 -23.0439 -51.2002 -51.2002 -51.2002c-28.1553 0 -51.2002 23.0439 -51.2002 51.2002
c0 28.1553 23.0449 51.1992 51.2002 51.1992zM286.72 366.08c-17.0869 0 -30.7197 -13.6328 -30.7197 -30.7197c0 -17.0879 13.6328 -30.7207 30.7197 -30.7207c17.0879 0 30.7207 13.6328 30.7207 30.7207c0 17.0869 -13.6328 30.7197 -30.7207 30.7197zM20.4805 359.68
v-345.6l112.64 -56.3203l118.399 59.2002c1.13477 0.527344 3.06934 0.956055 4.32031 0.956055s3.18652 -0.428711 4.32031 -0.956055l128.64 -59.2002l102.72 56v345.28l-97.5996 -53.1201c-1.29688 -0.735352 -3.55957 -1.33203 -5.05078 -1.33203
c-0.28418 0 -0.746094 0.0234375 -1.0293 0.0517578l-4.47949 0.640625c-8.49316 -32.998 -25.2812 -65.8584 -41.9199 -93.4404c-23.4668 -38.8994 -46.7207 -67.2002 -46.7207 -67.2002c-1.69727 -2.10547 -5.26953 -3.81543 -7.97363 -3.81543
c-2.56445 0 -6.0166 1.56641 -7.70605 3.49609c0 0 -23.5566 27.8857 -47.04 66.5596c-20.4443 33.6699 -41.6309 75.5332 -46.7197 116.48l-48 -21.7607c-1.13379 -0.527344 -3.06934 -0.955078 -4.32031 -0.955078s-3.18555 0.427734 -4.32031 0.955078z" />
    <glyph glyph-name="headset" unicode="&#xf102;" 
d="M256 437.76c95.3223 0 173.908 -72.5811 183.36 -165.439c9.36133 -3.04297 16.7969 -10.4785 19.8398 -19.8398c14.6104 -2.9248 27.2812 -12.9219 36.1602 -26.2402c10.5986 -15.8984 16.6396 -36.7842 16.6396 -59.8398
c0 -23.0469 -6.04199 -43.9404 -16.6396 -59.8408c-8.87891 -13.3193 -21.5488 -23.3154 -36.1602 -26.2393c-2.96973 -9.13965 -10.1514 -16.3467 -19.2002 -19.5205c-1.52246 -24.0693 -9.69922 -44.5791 -24.3203 -59.2002
c-16.2734 -16.2734 -39.8721 -24.6396 -67.5195 -24.6396h-32.6406c-4.28223 -11.835 -15.5684 -20.4795 -28.7998 -20.4795h-51.2002c-16.8447 0 -30.7197 13.874 -30.7197 30.7197s13.875 30.7197 30.7197 30.7197h51.2002c13.2314 0 24.5176 -8.64453 28.7998 -20.4795
h32.6406c23.5518 0 40.9141 6.99414 52.7998 18.8799c10.5098 10.5098 17.1533 25.2324 18.5596 44.7998c-11.6396 4.38574 -20.1592 15.3896 -20.1592 28.4795v153.601c0 12.7393 8.0459 23.5342 19.1992 28.1602c-8.97852 82.0713 -78.0645 145.92 -162.56 145.92
s-153.581 -63.8486 -162.56 -145.92c11.1533 -4.62598 19.1992 -15.4209 19.1992 -28.1602v-153.601c0 -16.8447 -13.874 -30.7197 -30.7197 -30.7197c-13.582 0 -25.1152 9.11621 -29.1201 21.4404c-14.6104 2.92383 -27.2803 12.9199 -36.1602 26.2393
c-10.5986 15.8994 -16.6396 36.793 -16.6396 59.8408c0 23.0566 6.04004 43.9424 16.6396 59.8398c8.87988 13.3174 21.5508 23.3145 36.1602 26.2402c3.04297 9.36133 10.4785 16.7969 19.8398 19.8398c9.45215 92.8584 88.0381 165.439 183.36 165.439zM81.9199 253.44
c-5.76465 0 -10.2402 -4.47559 -10.2402 -10.2402v-153.601c0 -5.76367 4.47559 -10.2393 10.2402 -10.2393s10.2402 4.47559 10.2402 10.2393v153.601c0 5.76465 -4.47559 10.2402 -10.2402 10.2402zM430.08 253.44c-5.76465 0 -10.2402 -4.47559 -10.2402 -10.2402
v-153.601c0 -5.76367 4.47559 -10.2393 10.2402 -10.2393s10.2402 4.47559 10.2402 10.2393v153.601c0 5.76465 -4.47559 10.2402 -10.2402 10.2402zM51.2002 230.72c-6.375 -2.70605 -12.3945 -7.87207 -17.6006 -15.6797
c-7.93164 -11.8965 -13.1191 -29.2725 -13.1191 -48.6396c0 -19.3564 5.18652 -36.7402 13.1191 -48.6406c5.20605 -7.80859 11.2256 -12.9746 17.6006 -15.6797v128.64zM460.8 230.72v-128.64c6.375 2.70508 12.3955 7.87109 17.6006 15.6797
c7.93066 11.8994 13.1191 29.2832 13.1191 48.6406c0 19.3682 -5.18848 36.7432 -13.1191 48.6396c-5.20508 7.80664 -11.2256 12.9736 -17.6006 15.6797zM235.52 -2.55957c-5.76367 0 -10.2393 -4.47559 -10.2393 -10.2402s4.47559 -10.2402 10.2393 -10.2402h51.2002
c5.76465 0 10.2402 4.47559 10.2402 10.2402s-4.47559 10.2402 -10.2402 10.2402h-51.2002z" />
    <glyph glyph-name="help-filled" unicode="&#xf12a;" 
d="M256 448c141.158 0 256 -114.842 256 -256s-114.842 -256 -256 -256s-256 114.842 -256 256s114.842 256 256 256zM274.401 69.7852v31.5811c0 2.20117 -1.46484 3.67578 -3.66602 3.67578h-27.9141c-2.21191 0 -3.67676 -1.47461 -3.67676 -3.67578v-31.5811
c0 -2.20117 1.4541 -3.67578 3.67676 -3.67578h27.9141c2.19141 0 3.66602 1.47461 3.66602 3.67578zM306.719 209.705c12.4932 17.2646 18.7188 30.1152 18.7285 47.7695c0 36.3623 -26.8076 62.4336 -66.457 62.4336c-38.1953 0 -63.5391 -23.1426 -69.0586 -58.3994
c-0.358398 -2.21191 0.737305 -3.67578 2.94922 -4.04492l23.1318 -4.04395c2.20215 -0.369141 3.66602 0.737305 4.03418 2.93848c4.40332 22.4053 17.623 34.8877 38.1855 34.8877c20.9404 0 35.625 -13.2197 35.625 -34.1504
c0 -12.4932 -4.40332 -20.9404 -17.2441 -38.5635l-24.6172 -33.792c-7.71094 -10.6504 -11.0078 -18.3604 -11.0078 -33.0547v-15.0527c0 -2.20215 1.4541 -3.67676 3.66602 -3.67676h24.2383c2.20117 0 3.66504 1.47461 3.66504 3.67676v11.7451
c0 12.4922 2.21191 17.6328 9.55469 27.5449z" />
    <glyph glyph-name="curriculum" unicode="&#xf10c;" 
d="M143.36 448c79.0537 0 143.359 -64.3057 143.359 -143.36c0 -79.0537 -64.3057 -143.359 -143.359 -143.359c-79.0547 0 -143.36 64.3057 -143.36 143.359c0 79.0547 64.3057 143.36 143.36 143.36zM143.36 427.52c-67.9863 0 -122.88 -54.8936 -122.88 -122.88
c0 -67.9854 54.8936 -122.88 122.88 -122.88c67.9854 0 122.88 54.8945 122.88 122.88c0 67.9863 -54.8945 122.88 -122.88 122.88zM142.4 397.12c0.265625 0.0253906 0.698242 0.0458984 0.964844 0.0458984c5.65332 0 10.2412 -4.58789 10.2412 -10.2412
c0 -0.100586 -0.00292969 -0.264648 -0.00683594 -0.365234v-76.7998l36.8008 -27.5195c2.33203 -1.7041 4.22461 -5.43164 4.22461 -8.32031c0 -5.68848 -4.61719 -10.3047 -10.3047 -10.3047c-1.85742 0 -4.58105 0.888672 -6.08008 1.98438l-39.6807 29.7607
c-0.374023 0.237305 -0.947266 0.666992 -1.2793 0.959961c-0.0908203 0.0859375 -0.234375 0.229492 -0.320312 0.319336c-0.179688 0.0830078 -0.466797 0.225586 -0.639648 0.320312c-0.0908203 0.0869141 -0.234375 0.229492 -0.320312 0.320312
c-0.0898438 0.0859375 -0.233398 0.229492 -0.320312 0.319336c-0.0898438 0.0869141 -0.233398 0.230469 -0.319336 0.320312c-0.0947266 0.173828 -0.238281 0.459961 -0.320312 0.639648c-0.0898438 0.0869141 -0.233398 0.230469 -0.320312 0.320312
c-0.0898438 0.0869141 -0.233398 0.229492 -0.319336 0.320312c-0.00292969 0.0878906 -0.00585938 0.231445 -0.00585938 0.319336c0 0.0888672 0.00292969 0.232422 0.00585938 0.320312c-0.0908203 0.0869141 -0.234375 0.229492 -0.320312 0.320312
c-0.0947266 0.173828 -0.238281 0.459961 -0.320312 0.639648c-0.0898438 0.0869141 -0.233398 0.229492 -0.319336 0.320312c-0.351562 0.949219 -0.636719 2.54102 -0.636719 3.55371c0 0.708008 0.141602 1.83984 0.316406 2.52637v79.3594
c-0.00195312 0.0683594 -0.00292969 0.178711 -0.00292969 0.24707c0 4.52734 3.58496 9.00391 8.00293 9.99316c0.347656 0.111328 0.920898 0.254883 1.28027 0.320312zM304.32 284.16c0.131836 0.00585938 0.34668 0.0107422 0.479492 0.0107422
s0.347656 -0.00488281 0.480469 -0.0107422c0.131836 0.00585938 0.34668 0.0107422 0.479492 0.0107422s0.347656 -0.00488281 0.480469 -0.0107422c0.131836 0.00585938 0.347656 0.0107422 0.479492 0.0107422c0.132812 0 0.347656 -0.00488281 0.480469 -0.0107422
h174.08c5.65137 -0.000976562 10.2393 -4.58789 10.2393 -10.2402v-266.24h10.2402c5.65234 0 10.2393 -4.58789 10.2402 -10.2393v-51.2002c-0.000976562 -5.65234 -4.58789 -10.2393 -10.2402 -10.2402h-419.84c-5.65137 0.000976562 -10.2393 4.58789 -10.2402 10.2402
v51.2002v0.0439453c0 5.14551 4.15723 9.71289 9.28027 10.1953c0.132812 0.00683594 0.347656 0.0117188 0.480469 0.0117188c0.131836 0 0.34668 -0.00488281 0.479492 -0.0117188h10.2402v133.12c-0.00195312 0.0683594 -0.00292969 0.178711 -0.00292969 0.24707
c0 4.52637 3.58496 9.00391 8.00293 9.99316c0.347656 0.111328 0.920898 0.254883 1.28027 0.320312c0.265625 0.0244141 0.698242 0.0449219 0.964844 0.0449219c5.65332 0 10.2412 -4.58789 10.2412 -10.2402c0 -0.101562 -0.00292969 -0.264648 -0.00683594 -0.365234
v-133.12h61.4404v40.96h111.68l11.2002 -20.4795l-11.2002 -20.4805h81.9199h103.36v256h-163.84c-0.395508 -0.0556641 -1.04102 -0.100586 -1.44043 -0.100586c-5.70801 0 -10.3408 4.63281 -10.3408 10.3408c0 4.96191 3.98828 9.54883 8.90137 10.2402z
M92.1602 -12.7998v-30.7197h399.359v30.7197h-123.84h-275.52z" />
    <glyph glyph-name="diploma" unicode="&#xf10b;" 
d="M8.32031 448c0.131836 0.00585938 0.34668 0.0117188 0.479492 0.0117188s0.347656 -0.00585938 0.480469 -0.0117188c0.131836 0.00585938 0.347656 0.0117188 0.479492 0.0117188c0.132812 0 0.347656 -0.00585938 0.480469 -0.0117188h491.52
c5.65234 -0.000976562 10.2393 -4.58789 10.2402 -10.2402v-409.6c-0.000976562 -5.65234 -4.58789 -10.2393 -10.2402 -10.2402h-163.84v20.4805h153.6v389.119h-471.039v-389.119h153.6v-20.4805h-163.84c-5.65234 0.000976562 -10.2393 4.58789 -10.2402 10.2402v409.6
c-0.000976562 0.0498047 -0.00195312 0.130859 -0.00195312 0.180664c0 4.67676 3.72852 9.18262 8.32227 10.0596zM102.4 355.84h307.199v-20.4795h-307.199v20.4795zM102.4 304.64h307.199v-20.4795h-307.199v20.4795zM102.4 253.44h307.199v-20.4805h-307.199v20.4805z
M255.04 203.2c11.0518 0 19.1895 -6.67578 24.6396 -15.04c9.73828 2.69629 20.6191 2.4873 29.1201 -4.7998c8.24121 -7.06445 10.4336 -17.4717 9.28027 -27.5205c9.50195 -4.21777 17.2188 -11.7227 19.5195 -22.0801
c0.101562 -0.260742 0.245117 -0.69043 0.320312 -0.959961c1.125 -10.123 -4.92871 -19.792 -14.0801 -26.5596c4.35156 -9.14844 5.57617 -19.6016 0.320312 -28.7998c-0.0751953 -0.269531 -0.21875 -0.700195 -0.320312 -0.959961
c-1.78809 -2.50391 -4.00488 -4.31055 -6.39941 -6.08008v-124.16c-0.124023 -5.52734 -4.71094 -10.0127 -10.2393 -10.0127c-1.51465 0 -3.80957 0.615234 -5.12109 1.37207l-46.0801 27.5205l-46.0801 -27.5205c-1.31152 -0.756836 -3.60645 -1.37207 -5.12109 -1.37207
c-5.52832 0 -10.1152 4.48535 -10.2393 10.0127v120c-5.30859 2.38965 -10.0898 5.89746 -13.1191 11.2002c-5.38086 9.41602 -3.68945 20.1582 0.959961 29.4395c-7.06348 6.98145 -11.4756 16.041 -10.2402 25.9199
c-0.00683594 0.132812 -0.0117188 0.347656 -0.0117188 0.480469c0 0.131836 0.00488281 0.347656 0.0117188 0.479492c2.20605 9.92773 9.76855 17.667 19.5195 21.7598c-1.27148 10.1465 1.27148 20.7012 9.60059 27.8408c8.19141 7.02148 19.1133 7.98633 29.1201 4.7998
c5.3877 8.65234 13.9043 15.04 24.6396 15.04zM255.04 182.72c-4.66504 0 -8.81836 -3.27246 -9.59961 -6.39941c-0.779297 -3.14551 -3.93359 -6.44238 -7.04004 -7.36035c-0.260742 -0.101562 -0.691406 -0.245117 -0.959961 -0.320312l-0.160156 -0.000976562
l-0.160156 0.000976562c-1.23145 -0.644531 -3.35938 -1.16797 -4.75 -1.16797c-1.75879 0 -4.36133 0.810547 -5.81055 1.80859c-2.88867 2.06348 -8.22363 2.09375 -12.1592 -1.28027c-4.05859 -3.47852 -4.86035 -8.05273 -3.2002 -12.4805
c0.347656 -0.945312 0.630859 -2.53027 0.630859 -3.53809c0 -1.97656 -1 -4.83594 -2.23145 -6.38184c-0.347656 -0.6875 -0.992188 -2.27246 -2.55957 -3.83984c-1.40137 -1.37793 -4.12598 -2.66797 -6.08008 -2.87988
c-4.3418 -0.482422 -6.9248 -3.62793 -8.32031 -9.28027c-0.115234 -3.875 2.08594 -9.00781 4.80078 -10.5596c2.97461 -1.57812 5.41113 -5.59277 5.43945 -8.95996v-4.16016c-0.0361328 -1.75391 -0.896484 -4.33496 -1.91992 -5.75977
c-3.08203 -4.31543 -3.45508 -9.55273 -1.59961 -12.7998c2.01172 -3.52051 6.21582 -5.62305 10.2393 -5.12012c0.390625 0.0546875 1.02637 0.0986328 1.41992 0.0986328c2.33203 0 5.56641 -1.33496 7.2207 -2.97852l2.87988 -2.87988
c1.74805 -1.65527 3.18164 -4.95312 3.2002 -7.36035c0 -3.92578 2.81836 -8.45703 6.71973 -9.91992c3.98926 -1.49609 7.3877 -0.292969 11.5195 3.83984c1.64453 1.59082 4.83496 2.88281 7.12305 2.88281c0.0654297 0 0.171875 -0.000976562 0.237305 -0.00292969
h1.91992h3.2002c2.26074 -0.0175781 5.41504 -1.30762 7.04004 -2.87988c2.88867 -2.88965 5.58887 -4.16016 8.32031 -4.16016c1.53516 0 3.18652 0.433594 3.19922 0.320312c0.0449219 0.000976562 0.116211 0.000976562 0.160156 0.000976562
s0.116211 0 0.160156 -0.000976562c4.60156 1.72559 6.71973 4.49609 6.71973 9.91992l-0.00195312 0.237305c0 2.28809 1.29102 5.47852 2.88184 7.12305l3.2002 2.87988c1.65039 1.62402 4.86914 2.94238 7.18457 2.94238c0.314453 0 0.823242 -0.0283203 1.13574 -0.0625
c3.81152 -0.476562 8.35449 1.76855 11.5195 5.75977c1.56445 3.24219 1.33105 8.05664 -1.59961 12.1602c-1.02344 1.4248 -1.88379 4.00586 -1.91992 5.75977v4.16016c0.00683594 3.94336 3.0166 8.24414 6.71973 9.59961
c7.30664 2.65723 8.08203 5.18945 7.68066 9.91992c-1.34473 5.50098 -3.55469 8.00781 -9.28027 9.28027c-1.65137 0.37207 -3.94531 1.66211 -5.12012 2.87988c-1.41602 1.41699 -1.82129 2.71973 -2.24023 3.52051c-1.52637 1.62988 -2.76562 4.7666 -2.76562 7
c0 0.917969 0.235352 2.36914 0.525391 3.23926c1.66016 4.42773 0.858398 9.00195 -3.19922 12.4805c-3.87598 3.32129 -7.67578 3.3623 -13.1201 0.639648c-1.23633 -0.68457 -3.38672 -1.25781 -4.7998 -1.2793c-1.8916 0 -1.91113 0.609375 -2.88086 0.959961
c-1.1709 0 -0.769531 0.175781 -1.2793 0.319336c-0.411133 0.213867 -1.7627 0.241211 -1.91992 0.320312c-2.56836 0.833984 -5.43555 3.55859 -6.40039 6.08008c-1.82422 4.86426 -5.25488 7.67969 -9.91992 7.67969zM296.96 56
c-2.95801 -6.64844 -7.97656 -12.0791 -14.7197 -15.04v-0.320312c-0.298828 -0.148438 -0.351562 0.130859 -0.640625 0c-0.211914 -0.0869141 -0.485352 -0.151367 -0.639648 -0.319336c-4.74902 -1.8877 -8.73535 -1.91992 -10.5596 -1.91992
c-7.39453 0 -13.3086 3.26562 -18.2402 7.04004c-0.0683594 0.0517578 -0.25293 -0.0527344 -0.320312 0c-0.0751953 -0.0546875 -0.244141 0.0527344 -0.320312 0c-7.92676 -5.57617 -17.6787 -9.25098 -27.8398 -5.44043
c-3.40137 1.27539 -6.22949 3.15137 -8.63965 5.44043v-81.2803l35.8398 21.4395c1.31152 0.757812 3.60547 1.37207 5.12012 1.37207s3.80859 -0.614258 5.12012 -1.37207l35.8398 -21.4395v91.8398z" />
    <glyph glyph-name="us-dollar" unicode="&#xf12f;" 
d="M240 400h32v-33.5c45.3545 -7.59766 80 -47.0635 80 -94.5v-16h-32v16c0 35.5264 -28.4736 64 -64 64c-35.4375 0 -64 -28.915 -64 -64c0 -19.5029 6.70898 -29.6875 19 -39.5s30.9951 -17.5 51 -25.5s41.29 -16.3047 59 -30.5s31 -36.0127 31 -64.5
c0 -46.8037 -34.5264 -86.793 -80 -94.5v-33.5h-32v33.5c-45.3545 7.59766 -80 47.0635 -80 94.5v16h32v-16c0 -35.5264 28.4736 -64 64 -64c35.3135 0 64 29.5303 64 64c0 19.6172 -6.70996 29.6484 -19 39.5s-31.0049 18.0039 -51 26s-41.291 15.8623 -59 30
s-31 36.0918 -31 64.5c0 47.1709 34.5957 86.8564 80 94.5v33.5z" />
    <glyph glyph-name="java-coffee-cup-logo" unicode="&#xf11c;" 
d="M288.64 448c64.9834 -94.2695 -95.25 -143.427 -72.6396 -197.76c13.373 -32.123 23.1475 -49.1367 36.4805 -69.7598c-0.0722656 0 -87.8184 57.9609 -76.8008 107.84c11.9912 54.292 141.12 94.5225 112.96 159.68zM374.4 357.76
c0 0 -77.0459 -46.1973 -80.6406 -71.04c-3.75781 -25.9688 33.4053 -47.8896 20.7998 -80.3193c-11.3662 -29.2559 -47.6797 -36.1602 -47.6797 -36.1602s19.9473 16.041 19.2002 35.2002c-0.921875 23.459 -33.29 40.4043 -30.7197 72.6396
c5.76465 72.417 119.04 79.6797 119.04 79.6797zM196.48 190.4c0 0 -46.7207 -10.4678 -46.7207 -20.8008c0 -11.2129 144.812 -9.74316 208.32 3.2002c-6.88184 -6.61523 -32.6396 -24.3193 -32.6396 -24.3193c-96.9121 -18.8418 -232.63 -16.5479 -232.641 14.0791
c0 29.3379 103.681 27.8408 103.681 27.8408zM395.84 190.4c22.3643 1.75195 41.6006 -11.6719 41.6006 -39.3604c0 -60.9688 -83.2002 -70.4004 -83.2002 -70.4004s53.7598 34.8906 53.7598 72c0 16.4971 -19.8223 30.958 -43.2002 25.9199
c9.91992 7.13965 20.875 11.0439 31.04 11.8408zM171.52 133.44c-32.7881 -25.7441 77.8428 -32.0312 137.921 -12.8008l30.7197 -18.8799c-88.6377 -34.7744 -208.32 -16.4473 -208.32 7.36035c0 11.8271 23.7676 24.3203 39.6797 24.3203zM186.24 80
c-22.2412 -23.5518 74.4473 -21.0918 112.96 -4.7998l32.6396 -20.7998c-51.5684 -31.0791 -181.76 -28.0068 -181.76 2.55957c0 9.88184 14.3691 23.04 36.1602 23.04zM113.6 52.4805c5.07324 -0.101562 10.4512 -0.442383 16 -1.28027l18.8809 -10.8799
c-22.3027 4.32129 -46.4004 -4.50293 -46.4004 -13.7607c0 -40.5811 327.307 -46.0723 297.6 22.7207c5.0791 -2.71387 18.8799 -8.53027 18.8799 -20.4805c0 -71.9463 -363.53 -75.21 -363.52 -4.7998c0 13.2344 23.0518 29.1875 58.5596 28.4805zM456.96 5.12012
c-0.696289 -64.3691 -195.387 -96.7012 -336.32 -39.04c140.943 -32.3691 281.024 -13.3789 336.32 39.04z" />
    <glyph glyph-name="tv-show" unicode="&#xf111;" 
d="M0 376.32h10.2402h491.52h10.2402v-10.2402v-307.2v-10.2402h-10.2402h-491.52h-10.2402v10.2402v307.2v10.2402zM20.4805 355.84v-286.72h471.039v286.72h-471.039zM211.2 278.08c1.12793 0 2.51074 -0.381836 3.51953 -0.959961l112.641 -65.2803
c2.0166 -1.16699 3.19922 -3.10547 3.19922 -5.43945c0 -2.33496 -1.18262 -4.59277 -3.19922 -5.76074l-112.641 -65.2793c-1.00293 -0.583984 -2.40332 -0.640625 -3.51953 -0.640625c-1.12695 0 -2.19629 0.0566406 -3.2002 0.640625
c-2.01758 1.15723 -3.2002 3.4248 -3.2002 5.75977v130.24c0 2.32422 1.17285 4.60254 3.2002 5.75977c1.00391 0.578125 2.07227 0.959961 3.2002 0.959961zM110.72 28.1602c0.132812 0.00585938 0.347656 0.0107422 0.480469 0.0107422
s0.347656 -0.00488281 0.479492 -0.0107422c0.132812 0.00585938 0.347656 0.0107422 0.480469 0.0107422s0.347656 -0.00488281 0.479492 -0.0107422h286.721c0.0400391 0 0.104492 0.000976562 0.144531 0.000976562c5.65332 0 10.2412 -4.58789 10.2412 -10.2412
s-4.58789 -10.2412 -10.2412 -10.2412c-0.0400391 0 -0.104492 0.000976562 -0.144531 0.000976562h-286.721c-0.263672 -0.0244141 -0.694336 -0.0449219 -0.959961 -0.0449219c-5.67676 0 -10.2842 4.6084 -10.2842 10.2852c0 5.16992 4.17676 9.75781 9.32422 10.2402z
" />
    <glyph glyph-name="classroom" unicode="&#xf10f;" 
d="M100.48 448c0.131836 0.00585938 0.34668 0.0117188 0.479492 0.0117188s0.347656 -0.00585938 0.480469 -0.0117188c0.131836 0.00585938 0.34668 0.0117188 0.479492 0.0117188s0.347656 -0.00585938 0.480469 -0.0117188h378.88
c5.65137 -0.000976562 10.2393 -4.58789 10.2393 -10.2402v-245.76h10.2402c5.65234 -0.000976562 10.2393 -4.58789 10.2402 -10.2402v-30.7197c-0.000976562 -5.65234 -4.58789 -10.2393 -10.2402 -10.2402h-276.479l-0.145508 -0.000976562
c-5.65234 0 -10.2402 4.58789 -10.2402 10.2412s4.58789 10.2412 10.2402 10.2412l0.145508 -0.000976562h266.239v10.2393h-266.239c-0.132812 -0.00585938 -0.347656 -0.0107422 -0.480469 -0.0107422c-5.6582 0 -10.251 4.59277 -10.251 10.251
c0 5.40039 4.37695 9.9873 9.77148 10.2402c0.131836 0.00585938 0.34668 0.0117188 0.479492 0.0117188s0.347656 -0.00585938 0.480469 -0.0117188h112.64v40.96h91.2002l11.2002 -20.4795l-11.2002 -20.4805h41.9199v235.52h-358.4v-10.2393l0.000976562 -0.145508
c0 -5.65234 -4.58789 -10.2402 -10.2402 -10.2402c-5.65332 0 -10.2412 4.58789 -10.2412 10.2402l0.000976562 0.145508v20.4795c-0.000976562 0.0498047 -0.00195312 0.130859 -0.00195312 0.180664c0 4.67676 3.72852 9.18262 8.32227 10.0596zM122.88 396.8
c33.8115 0 61.4404 -27.6289 61.4404 -61.4395c0 -33.8115 -27.6289 -61.4404 -61.4404 -61.4404c-33.8105 0 -61.4395 27.6289 -61.4395 61.4404c0 33.8105 27.6289 61.4395 61.4395 61.4395zM122.88 273.92h40.3203h0.639648l67.8398 14.0801l43.8398 56.6396
c4.91797 6.55664 12.0771 10.0605 19.5205 10.8799c7.44336 0.820312 15.1572 -1.04785 21.4404 -5.75977c13.1113 -9.83398 14.5439 -28.3945 5.11914 -40.96l0.00195312 -0.160156l-0.00195312 -0.15918l-51.1992 -66.2402h-0.320312
c-4.90039 -6.42383 -12.0781 -11.1387 -20.7998 -13.7598c-0.0947266 -0.0292969 -0.225586 0.0273438 -0.320312 0l-0.320312 -0.320312l-43.8398 -15.6797v-93.1201c23.2734 -4.7959 40.96 -25.6045 40.96 -50.2402c0 -15.5205 -7.23926 -29.3096 -18.2402 -38.7197
c11.792 -6.1543 21.626 -15.5635 28.4805 -26.8809c6.81738 11.2568 16.791 20.75 28.4805 26.8809c-11.001 9.41016 -18.2402 23.1992 -18.2402 38.7197c0 28.1553 23.0439 51.2002 51.2002 51.2002c28.1553 0 51.1992 -23.0449 51.1992 -51.2002
c0 -15.5205 -7.23926 -29.3096 -18.2393 -38.7197c11.7842 -6.18066 21.6367 -15.4639 28.4795 -26.8809c6.81836 11.2568 16.791 20.75 28.4805 26.8809c-11.001 9.41016 -18.2402 23.1992 -18.2402 38.7197c0 28.1553 23.0439 51.2002 51.2002 51.2002
c28.1553 0 51.1992 -23.0449 51.1992 -51.2002c0 -15.5205 -7.23926 -29.3096 -18.2393 -38.7197c22.9023 -12.0107 38.7197 -36.1904 38.7197 -63.6807v-20.4795c-0.000976562 -5.65234 -4.58789 -10.2393 -10.2402 -10.2402h-121.92
c-0.131836 -0.00585938 -0.347656 -0.0117188 -0.479492 -0.0117188c-0.132812 0 -0.347656 0.00585938 -0.480469 0.0117188h-1.59961h-120.32h-0.959961h-1.59961h-120.32c-0.132812 -0.00585938 -0.347656 -0.0117188 -0.480469 -0.0117188
c-0.131836 0 -0.347656 0.00585938 -0.479492 0.0117188h-122.88c-5.65234 0.000976562 -10.2393 4.58789 -10.2402 10.2402v20.4795c0 27.4902 15.8174 51.6699 38.7197 63.6807c-11 9.41016 -18.2393 23.1992 -18.2393 38.7197c0 20.8584 12.7168 38.7627 30.7197 46.7197
v110.08c0 19.3809 8.0791 32.9551 18.5596 40c10.4814 7.04492 21.7334 8 29.4404 8h23.6797zM122.88 376.32c-22.7432 0 -40.96 -18.2178 -40.96 -40.96c0 -22.7432 18.2168 -40.96 40.96 -40.96s40.96 18.2168 40.96 40.96c0 22.7422 -18.2168 40.96 -40.96 40.96z
M297.28 335.04c-2.25586 -0.268555 -4.21289 -1.24414 -5.44043 -2.87988l-46.0801 -59.5205c-1.32324 -1.58301 -4.04688 -3.16016 -6.08008 -3.51953l-73.5996 -15.3604c-0.608398 -0.15625 -1.6123 -0.299805 -2.24023 -0.319336h-64.6396
c-5.60449 0 -13.1055 -1.0293 -18.2402 -4.48047s-9.28027 -8.62891 -9.28027 -23.04v-105.6c28.1562 0 51.2002 -23.0449 51.2002 -51.2002c0 -15.5205 -7.23926 -29.3096 -18.2402 -38.7197c11.7842 -6.18066 21.6367 -15.4639 28.4805 -26.8809
c6.81738 11.2568 16.791 20.75 28.4795 26.8809c-11 9.41016 -18.2393 23.1992 -18.2393 38.7197c0 24.6357 17.6865 45.4443 40.96 50.2402v100.159c-0.00292969 0.0820312 -0.00488281 0.213867 -0.00488281 0.294922c0 3.95312 3.0127 8.26562 6.72461 9.62598
l51.2002 18.2393c0.172852 0.0947266 0.459961 0.238281 0.639648 0.320312c5.18457 1.48145 10.0957 4.92773 11.2002 6.40039l-0.000976562 0.15918l0.000976562 0.160156l51.2002 66.2402c0.0722656 0.0966797 -0.0693359 0.220703 0 0.320312
c2.61914 3.82617 1.9082 9.76855 -1.28027 12.1602c-1.90918 1.43164 -4.46387 1.86816 -6.71973 1.59961zM71.6797 99.8398c-2.13574 0 -4.07129 -0.233398 -6.08008 -0.639648c-0.347656 -0.111328 -0.920898 -0.254883 -1.2793 -0.320312
c-0.609375 -0.149414 -1.32617 -0.134766 -1.91992 -0.320312c-12.4854 -3.89453 -21.4404 -15.5947 -21.4404 -29.4395c0 -17.0879 13.6328 -30.7197 30.7197 -30.7197c17.0879 0 30.7207 13.6318 30.7207 30.7197c0 17.0869 -13.6328 30.7197 -30.7207 30.7197z
M317.44 99.8398c-17.0879 0 -30.7207 -13.6328 -30.7207 -30.7197c0 -17.0879 13.6328 -30.7197 30.7207 -30.7197c17.0869 0 30.7197 13.6318 30.7197 30.7197c0 17.0869 -13.6328 30.7197 -30.7197 30.7197zM440.32 99.8398
c-17.0879 0 -30.7207 -13.6328 -30.7207 -30.7197c0 -17.0879 13.6328 -30.7197 30.7207 -30.7197c17.0869 0 30.7197 13.6318 30.7197 30.7197c0 17.0869 -13.6328 30.7197 -30.7197 30.7197zM192 99.5195c-15.8145 -1.33496 -28.1602 -14.2129 -28.1602 -30.3994
c0 -17.0879 13.6328 -30.7197 30.7197 -30.7197c17.0879 0 30.7207 13.6318 30.7207 30.7197c0 16.2979 -12.5078 29.2188 -28.4805 30.3994c-0.108398 0.00878906 -0.210938 -0.00683594 -0.319336 0c-0.568359 -0.117188 -1.5 -0.212891 -2.08008 -0.212891
s-1.5127 0.0957031 -2.08008 0.212891c-0.109375 -0.0078125 -0.211914 0.00976562 -0.320312 0zM71.6797 17.9199c-28.2061 0 -51.1992 -22.9932 -51.1992 -51.2002v-10.2393h102.399v10.2393c0 28.207 -22.9932 51.2002 -51.2002 51.2002zM194.56 17.9199
c-28.2061 0 -51.1992 -22.9932 -51.1992 -51.2002v-10.2393h102.399v10.2393c0 28.207 -22.9932 51.2002 -51.2002 51.2002zM317.44 17.9199c-28.207 0 -51.2002 -22.9932 -51.2002 -51.2002v-10.2393h102.399v10.2393c0 28.207 -22.9932 51.2002 -51.1992 51.2002z
M440.32 17.9199c-28.207 0 -51.2002 -22.9932 -51.2002 -51.2002v-10.2393h102.399v10.2393c0 28.207 -22.9932 51.2002 -51.1992 51.2002z" />
    <glyph glyph-name="video-paylist" unicode="&#xf110;" 
d="M131.2 396.8c0.131836 0.00683594 0.347656 0.0117188 0.479492 0.0117188c0.132812 0 0.347656 -0.00488281 0.480469 -0.0117188c0.131836 0.00683594 0.347656 0.0117188 0.479492 0.0117188c0.132812 0 0.347656 -0.00488281 0.480469 -0.0117188h245.76
l0.144531 0.000976562c5.65332 0 10.2412 -4.58789 10.2412 -10.2412c0 -5.65234 -4.58789 -10.2402 -10.2412 -10.2402l-0.144531 0.000976562h-245.76c-0.264648 -0.0253906 -0.694336 -0.0449219 -0.959961 -0.0449219c-5.67773 0 -10.2852 4.60742 -10.2852 10.2842
c0 5.16992 4.17773 9.75781 9.3252 10.2402zM80 355.84c0.132812 0.00585938 0.347656 0.0117188 0.480469 0.0117188c0.131836 0 0.34668 -0.00585938 0.479492 -0.0117188c0.132812 0.00683594 0.347656 0.0117188 0.480469 0.0117188
c0.131836 0 0.34668 -0.00488281 0.479492 -0.0117188h348.16l0.144531 0.000976562c5.65332 0 10.2412 -4.58789 10.2412 -10.2412c0 -5.65234 -4.58789 -10.2402 -10.2412 -10.2402l-0.144531 0.000976562h-348.16
c-0.264648 -0.0253906 -0.694336 -0.0449219 -0.959961 -0.0449219c-5.67676 0 -10.2852 4.60742 -10.2852 10.2842c0 5.16992 4.17773 9.75781 9.3252 10.2402zM28.7998 314.88c0.132812 0.00683594 0.347656 0.0117188 0.480469 0.0117188
c0.131836 0 0.347656 -0.00488281 0.479492 -0.0117188c0.132812 0.00683594 0.347656 0.0117188 0.480469 0.0117188c0.131836 0 0.347656 -0.00488281 0.479492 -0.0117188h450.561c5.65137 0 10.2393 -4.58789 10.2393 -10.2402v-307.199
c0 -5.65234 -4.58789 -10.2402 -10.2393 -10.2402h-450.561c-5.65137 0 -10.2393 4.58789 -10.2393 10.2402v307.199c-0.000976562 0.0498047 -0.00195312 0.130859 -0.00195312 0.180664c0 4.67676 3.72754 9.18359 8.32129 10.0596zM40.96 294.4v-286.721h430.08v286.721
h-430.08zM206.72 212.48l108.8 -61.4404l-108.8 -61.4404v122.881z" />
    <glyph glyph-name="grid-3" unicode="&#xf125;" 
d="M30.7197 427.52h450.561c5.65137 0 10.2393 -4.58789 10.2393 -10.2393v-450.561c0 -5.65137 -4.58789 -10.2393 -10.2393 -10.2393h-450.561c-5.65137 0 -10.2393 4.58789 -10.2393 10.2393v450.561c0 5.65137 4.58789 10.2393 10.2393 10.2393zM40.96 407.04v-133.12
h102.4v133.12h-102.4zM163.84 407.04v-133.12h307.2v133.12h-307.2zM40.96 253.44v-122.881h102.4v122.881h-102.4zM163.84 253.44v-122.881h307.2v122.881h-307.2zM40.96 110.08v-133.12h102.4v133.12h-102.4zM163.84 110.08v-133.12h307.2v133.12h-307.2z" />
    <glyph glyph-name="grid-2" unicode="&#xf124;" 
d="M30.7197 427.52h450.561c5.65137 0 10.2393 -4.58789 10.2393 -10.2393v-450.561c0 -5.65137 -4.58789 -10.2393 -10.2393 -10.2393h-450.561c-5.65137 0 -10.2393 4.58789 -10.2393 10.2393v450.561c0 5.65137 4.58789 10.2393 10.2393 10.2393zM40.96 407.04v-204.8
h204.8v204.8h-204.8zM266.24 407.04v-204.8h204.8v204.8h-204.8zM40.96 181.76v-204.8h204.8v204.8h-204.8zM266.24 181.76v-204.8h204.8v204.8h-204.8z" />
    <glyph glyph-name="arlo-logo-for-font" unicode="&#xf11a;" 
d="M107.431 202.366c6.00488 0 12.7832 -2.51758 16.4629 -5.81055v-29.0547c-4.64844 -3.67969 -10.6514 -5.80957 -16.4629 -5.80957c-11.6221 0 -19.1758 7.94141 -19.1758 20.1436c0 12.5889 7.36035 20.5312 19.1758 20.5312zM405.593 201.591
c11.6221 0 19.1758 -8.71582 19.1758 -19.7559c0 -10.6533 -7.55371 -19.5625 -19.1758 -19.5625c-11.2344 0 -18.9814 8.90918 -18.9814 19.5625c0 11.04 7.74707 19.7559 18.9814 19.7559zM498.743 194.847c0 -134.316 -108.884 -243.2 -243.2 -243.2
s-243.199 108.884 -243.199 243.2s108.884 243.201 243.199 243.201c134.316 0 243.2 -108.886 243.2 -243.201zM176.771 133.606l-0.775391 29.4404c-3.09766 -1.35547 -6.00391 -2.32422 -9.2959 -2.32422c-4.64844 0 -5.61719 3.87402 -5.61719 8.52246v63.5293h-37.1885
v-9.10254c-6.19824 6.58496 -15.1074 10.8467 -27.3096 10.8467c-27.3096 0 -46.0977 -21.8867 -46.0977 -52.6836c0 -30.4092 18.7881 -52.1016 46.0977 -52.1016c13.1709 0 23.6299 6.19824 30.0215 14.1387c3.87305 -10.2656 12.3955 -14.332 24.5977 -14.332
c10.46 0 19.9502 1.93555 25.5674 4.06641zM276.268 230.45c-0.193359 0.582031 -8.52246 4.06836 -18.0117 4.06836c-12.3965 0 -19.1758 -6.00391 -23.8252 -15.1084c-3.87305 10.8467 -12.5889 15.1084 -24.792 15.1084c-13.5576 0 -25.3721 -3.67969 -25.7607 -4.06836
l0.96875 -29.2471c0.387695 0.195312 5.42285 2.13086 9.49121 2.13086c4.4541 0 5.22949 -3.67969 5.22949 -8.52246v-63.335h37.1885v51.7148c0.581055 8.90918 4.45508 17.2383 15.3018 17.2383c10.0713 0 19.3682 -3.4873 19.7568 -4.06738zM340.639 133.606
l-1.16016 29.4404c-3.29297 -1.35547 -6.39355 -2.32422 -9.49121 -2.32422c-4.64941 0 -5.81152 3.87305 -5.81152 8.71582v99.5557h-37.1875v-108.853c0 -22.6621 10.6533 -30.6025 27.5029 -30.6025c11.04 0 21.1123 2.51758 26.1475 4.06738zM460.601 181.835
c0 30.7969 -23.2432 53.6514 -55.0078 53.6514c-31.377 0 -54.6201 -22.8545 -54.6201 -53.6514c0 -30.4092 23.2432 -53.0703 54.6201 -53.0703c31.7646 0 55.0078 22.6611 55.0078 53.0703z" />
    <glyph glyph-name="us-dollar-2" unicode="&#xf130;" 
d="M209.743 106.851c7.1084 -7.56152 15.9307 -12.3867 26.4854 -14.4346v71.877c-1.16113 0.453125 -2.69727 0.964844 -4.64648 1.55566c-1.9502 0.571289 -4.07715 1.08301 -6.36133 1.53613c-8.4873 2.28418 -16.8564 5.00195 -25.1074 8.09375
s-15.6553 7.22656 -22.1934 12.3857c-6.53809 5.16016 -11.7559 11.5791 -15.6357 19.2598c-3.89941 7.67969 -5.84863 17.25 -5.84863 28.7305c0 11.6973 2.24512 22.0166 6.71484 30.9365c4.4707 8.94043 10.3584 16.4629 17.7041 22.5283
c7.3252 6.08496 15.8125 10.791 25.4424 14.0996c9.62891 3.32812 19.6133 5.31738 29.9316 6.02637v26.4463h20.2832v-26.4863c10.3193 -1.1416 20.0078 -3.38672 29.0664 -6.69531c9.05859 -3.32812 17.0332 -7.91602 23.9062 -13.7646s12.4844 -13.1348 16.8564 -21.8389
c4.35254 -8.72363 6.87305 -19.042 7.56152 -30.9561h-48.8369c-0.235352 9.17676 -3.09082 16.9746 -8.60547 23.3945c-5.49414 6.41895 -12.1494 9.64844 -19.9287 9.64844v-60.8682c2.75781 -0.689453 5.55371 -1.37891 8.42871 -2.06836
c2.875 -0.688477 5.9082 -1.49609 9.11719 -2.40234c16.9756 -4.58789 30.0312 -10.2793 39.208 -17.0332c9.15625 -6.75488 15.9307 -13.8242 20.2832 -21.1494c4.35156 -7.32617 6.93164 -14.6709 7.73828 -22.0166c0.807617 -7.34473 1.20215 -13.8633 1.20215 -19.5938
c0 -5.06055 -1.26074 -11.4014 -3.78125 -19.082c-2.52051 -7.69922 -7.0498 -15.1826 -13.5879 -22.5273c-6.53809 -7.3457 -15.3008 -13.8838 -26.3086 -19.6143s-25.1084 -9.15625 -42.2998 -10.3184v-29.2236h-20.2822v29.2236
c-25.6787 1.83105 -45.7451 9.74805 -60.1797 23.7295c-14.4541 13.9814 -22.8242 34.501 -25.1084 61.5576h48.5029c-0.256836 -13.0752 3.18945 -23.375 10.2793 -30.9561zM224.886 267.461c-3.66211 -1.14258 -6.99023 -2.93457 -9.96387 -5.31738
c-2.97363 -2.42188 -5.31738 -5.39551 -7.0498 -8.93945c-1.71289 -3.56445 -2.58008 -7.73926 -2.58008 -12.5449c0 -7.58105 2.40234 -13.4102 7.22754 -17.5449c4.80469 -4.11621 12.7207 -7.44434 23.7295 -9.96484v56.0439
c-3.91895 0 -7.7002 -0.570312 -11.3633 -1.73242zM269.43 95.3301c4.4707 1.49707 8.48828 3.62402 12.0322 6.36133c3.54492 2.7373 6.47949 6.14355 8.76367 10.1611c2.28418 3.99707 3.44629 8.7627 3.44629 14.2764c0 8.94043 -2.81641 15.6357 -8.42871 20.1064
c-5.6123 4.46973 -15.1826 8.5459 -28.7119 12.209v-66.0283c4.11621 0.453125 8.42871 1.41797 12.8984 2.91406z" />
    <glyph glyph-name="plus" unicode="&#xf100;" 
d="M265.846 385.221c112.148 0 203.087 -90.9189 203.087 -203.066c0 -112.148 -90.9385 -203.087 -203.087 -203.087c-112.147 0 -203.066 90.9385 -203.066 203.087c0 112.147 90.9189 203.066 203.066 203.066zM374.154 152.615v59.0771h-78.7695v78.7695h-59.0771
v-78.7695h-78.7695v-59.0771h78.7695v-78.7695h59.0771v78.7695h78.7695z" />
    <glyph glyph-name="toggle-off" unicode="&#xf116;" 
d="M143.36 335.36h225.279c79.0576 0 143.36 -64.3037 143.36 -143.36s-64.3027 -143.36 -143.36 -143.36h-225.279c-79.0547 0 -143.36 64.3057 -143.36 143.36s64.3057 143.36 143.36 143.36zM143.36 314.88c-67.9863 0 -122.88 -54.8936 -122.88 -122.88
s54.8936 -122.88 122.88 -122.88c67.9854 0 122.88 54.8936 122.88 122.88s-54.8945 122.88 -122.88 122.88zM216.64 314.88c41.8213 -25.0684 70.0801 -70.6699 70.0801 -122.88s-28.2588 -97.8115 -70.0801 -122.88h152c67.9902 0 122.88 54.8906 122.88 122.88
s-54.8896 122.88 -122.88 122.88h-152z" />
    <glyph glyph-name="minus" unicode="&#xf101;" 
d="M256 400c114.686 0 208 -93.3145 208 -208s-93.3145 -208 -208 -208s-208 93.3145 -208 208s93.3145 208 208 208zM256 368c-97.3916 0 -176 -78.6084 -176 -176s78.6084 -176 176 -176s176 78.6084 176 176s-78.6084 176 -176 176zM160 208h192v-32h-192v32z" />
  </font>
</defs>
</svg>
